  0
SECTION
  2
HEADER
  9
$ACADVER
  1
AC1015
  9
$ACADMAINTVER
 70
     6
  9
$DWGCODEPAGE
  3
ANSI_1252
  9
$INSBASE
 10
0.0
 20
0.0
 30
0.0
  9
$EXTMIN
 10
0.0
 20
0.0
 30
0.0
  9
$EXTMAX
 10
8400.0
 20
5940.0
 30
0.0
  9
$LIMMIN
 10
0.0
 20
0.0
  9
$LIMMAX
 10
8400.0
 20
5940.0
  9
$ORTHOMODE
 70
     0
  9
$REGENMODE
 70
     1
  9
$FILLMODE
 70
     1
  9
$QTEXTMODE
 70
     0
  9
$MIRRTEXT
 70
     1
  9
$LTSCALE
 40
20.0
  9
$ATTMODE
 70
     1
  9
$TEXTSIZE
 40
70.0
  9
$TRACEWID
 40
1.0
  9
$TEXTSTYLE
  7
STANDARD
  9
$CLAYER
  8
0
  9
$CELTYPE
  6
ByLayer
  9
$CECOLOR
 62
   256
  9
$CELTSCALE
 40
1.0
  9
$DISPSILH
 70
     0
  9
$DIMSCALE
 40
1.0
  9
$DIMASZ
 40
66.04
  9
$DIMEXO
 40
20.0
  9
$DIMDLI
 40
3.75
  9
$DIMRND
 40
0.0
  9
$DIMDLE
 40
0.0
  9
$DIMEXE
 40
20.0
  9
$DIMTP
 40
0.0
  9
$DIMTM
 40
0.0
  9
$DIMTXT
 40
70.0
  9
$DIMCEN
 40
2.5
  9
$DIMTSZ
 40
0.0
  9
$DIMTOL
 70
     0
  9
$DIMLIM
 70
     0
  9
$DIMTIH
 70
     1
  9
$DIMTOH
 70
     1
  9
$DIMSE1
 70
     0
  9
$DIMSE2
 70
     0
  9
$DIMTAD
 70
     1
  9
$DIMZIN
 70
     0
  9
$DIMBLK
  1

  9
$DIMASO
 70
     1
  9
$DIMSHO
 70
     1
  9
$DIMPOST
  1

  9
$DIMAPOST
  1

  9
$DIMALT
 70
     0
  9
$DIMALTD
 70
     3
  9
$DIMALTF
 40
0.0393700787
  9
$DIMLFAC
 40
1.0
  9
$DIMTOFL
 70
     1
  9
$DIMTVP
 40
0.0
  9
$DIMTIX
 70
     0
  9
$DIMSOXD
 70
     0
  9
$DIMSAH
 70
     0
  9
$DIMBLK1
  1

  9
$DIMBLK2
  1

  9
$DIMSTYLE
  2
ISO-25
  9
$DIMCLRD
 70
     0
  9
$DIMCLRE
 70
     0
  9
$DIMCLRT
 70
     0
  9
$DIMTFAC
 40
1.0
  9
$DIMGAP
 40
30.48
  9
$DIMJUST
 70
     0
  9
$DIMSD1
 70
     0
  9
$DIMSD2
 70
     0
  9
$DIMTOLJ
 70
     0
  9
$DIMTZIN
 70
     0
  9
$DIMALTZ
 70
     0
  9
$DIMALTTZ
 70
     0
  9
$DIMUPT
 70
     0
  9
$DIMDEC
 70
     2
  9
$DIMTDEC
 70
     2
  9
$DIMALTU
 70
     2
  9
$DIMALTTD
 70
     3
  9
$DIMTXSTY
  7
STANDARD
  9
$DIMAUNIT
 70
     0
  9
$DIMADEC
 70
     2
  9
$DIMALTRND
 40
0.0
  9
$DIMAZIN
 70
     0
  9
$DIMDSEP
 70
    44
  9
$DIMATFIT
 70
     3
  9
$DIMFRAC
 70
     0
  9
$DIMLDRBLK
  1

  9
$DIMLUNIT
 70
     2
  9
$DIMLWD
 70
    -2
  9
$DIMLWE
 70
    -2
  9
$DIMTMOVE
 70
     0
  9
$LUNITS
 70
     2
  9
$LUPREC
 70
     2
  9
$SKETCHINC
 40
1.0
  9
$FILLETRAD
 40
10.0
  9
$AUNITS
 70
     0
  9
$AUPREC
 70
     2
  9
$MENU
  1
.
  9
$ELEVATION
 40
0.0
  9
$PELEVATION
 40
0.0
  9
$THICKNESS
 40
0.0
  9
$LIMCHECK
 70
     0
  9
$CHAMFERA
 40
0.0
  9
$CHAMFERB
 40
0.0
  9
$CHAMFERC
 40
0.0
  9
$CHAMFERD
 40
0.0
  9
$SKPOLY
 70
     0
  9
$TDCREATE
 40
2459632.727754213
  9
$TDUCREATE
 40
2459632.561087546
  9
$TDUPDATE
 40
2459632.72775566
  9
$TDUUPDATE
 40
2459632.561088993
  9
$TDINDWG
 40
0.0000000116
  9
$TDUSRTIMER
 40
0.0000000116
  9
$USRTIMER
 70
     1
  9
$ANGBASE
 50
0.0
  9
$ANGDIR
 70
     0
  9
$PDMODE
 70
     0
  9
$PDSIZE
 40
-1.0
  9
$PLINEWID
 40
0.0
  9
$SPLFRAME
 70
     0
  9
$SPLINETYPE
 70
     6
  9
$SPLINESEGS
 70
     8
  9
$HANDSEED
  5
5D8
  9
$SURFTAB1
 70
     6
  9
$SURFTAB2
 70
     6
  9
$SURFTYPE
 70
     6
  9
$SURFU
 70
     6
  9
$SURFV
 70
     6
  9
$UCSBASE
  2

  9
$UCSNAME
  2

  9
$UCSORG
 10
0.0
 20
0.0
 30
0.0
  9
$UCSXDIR
 10
1.0
 20
0.0
 30
0.0
  9
$UCSYDIR
 10
0.0
 20
1.0
 30
0.0
  9
$UCSORTHOREF
  2

  9
$UCSORTHOVIEW
 70
     0
  9
$UCSORGTOP
 10
0.0
 20
0.0
 30
0.0
  9
$UCSORGBOTTOM
 10
0.0
 20
0.0
 30
0.0
  9
$UCSORGLEFT
 10
0.0
 20
0.0
 30
0.0
  9
$UCSORGRIGHT
 10
0.0
 20
0.0
 30
0.0
  9
$UCSORGFRONT
 10
0.0
 20
0.0
 30
0.0
  9
$UCSORGBACK
 10
0.0
 20
0.0
 30
0.0
  9
$PUCSBASE
  2

  9
$PUCSNAME
  2

  9
$PUCSORG
 10
0.0
 20
0.0
 30
0.0
  9
$PUCSXDIR
 10
1.0
 20
0.0
 30
0.0
  9
$PUCSYDIR
 10
0.0
 20
1.0
 30
0.0
  9
$PUCSORTHOREF
  2

  9
$PUCSORTHOVIEW
 70
     0
  9
$PUCSORGTOP
 10
0.0
 20
0.0
 30
0.0
  9
$PUCSORGBOTTOM
 10
0.0
 20
0.0
 30
0.0
  9
$PUCSORGLEFT
 10
0.0
 20
0.0
 30
0.0
  9
$PUCSORGRIGHT
 10
0.0
 20
0.0
 30
0.0
  9
$PUCSORGFRONT
 10
0.0
 20
0.0
 30
0.0
  9
$PUCSORGBACK
 10
0.0
 20
0.0
 30
0.0
  9
$USERI1
 70
     0
  9
$USERI2
 70
     0
  9
$USERI3
 70
     0
  9
$USERI4
 70
     0
  9
$USERI5
 70
     0
  9
$USERR1
 40
0.0
  9
$USERR2
 40
0.0
  9
$USERR3
 40
0.0
  9
$USERR4
 40
0.0
  9
$USERR5
 40
0.0
  9
$WORLDVIEW
 70
     1
  9
$SHADEDGE
 70
     3
  9
$SHADEDIF
 70
    70
  9
$TILEMODE
 70
     1
  9
$MAXACTVP
 70
    64
  9
$PINSBASE
 10
0.0
 20
0.0
 30
0.0
  9
$PLIMCHECK
 70
     0
  9
$PEXTMIN
 10
1.0000000000E+20
 20
1.0000000000E+20
 30
1.0000000000E+20
  9
$PEXTMAX
 10
-1.0000000000E+20
 20
-1.0000000000E+20
 30
-1.0000000000E+20
  9
$PLIMMIN
 10
0.0
 20
0.0
  9
$PLIMMAX
 10
420.0
 20
297.0
  9
$UNITMODE
 70
     0
  9
$VISRETAIN
 70
     1
  9
$PLINEGEN
 70
     0
  9
$PSLTSCALE
 70
     1
  9
$TREEDEPTH
 70
  3020
  9
$CMLSTYLE
  2
Standard
  9
$CMLJUST
 70
     0
  9
$CMLSCALE
 40
20.0
  9
$PROXYGRAPHICS
 70
     1
  9
$MEASUREMENT
 70
     1
  9
$CELWEIGHT
370
    -1
  9
$ENDCAPS
280
     0
  9
$JOINSTYLE
280
     0
  9
$LWDISPLAY
290
     1
  9
$INSUNITS
 70
     4
  9
$HYPERLINKBASE
  1

  9
$STYLESHEET
  1

  9
$XEDIT
290
     1
  9
$CEPSNTYPE
380
     0
  9
$PSTYLEMODE
290
     1
  9
$FINGERPRINTGUID
  2
{F47FC01C-14A7-4F03-9C0E-473C24784ED5}
  9
$VERSIONGUID
  2
{FAEB1C32-E019-11D5-929B-00C0DF256EC4}
  9
$EXTNAMES
290
     1
  9
$PSVPSCALE
 40
0.0
  9
$OLESTARTUP
290
     0
  0
ENDSEC
  0
SECTION
  2
CLASSES
  0
CLASS
  1
ACDBDICTIONARYWDFLT
  2
AcDbDictionaryWithDefault
  3
ObjectDBX Classes
 90
        0
280
     0
281
     0
  0
CLASS
  1
VISUALSTYLE
  2
AcDbVisualStyle
  3
ObjectDBX Classes
 90
     4095
280
     0
281
     0
  0
CLASS
  1
MATERIAL
  2
AcDbMaterial
  3
ObjectDBX Classes
 90
     1153
280
     0
281
     0
  0
CLASS
  1
SCALE
  2
AcDbScale
  3
ObjectDBX Classes
 90
     1153
280
     0
281
     0
  0
CLASS
  1
TABLESTYLE
  2
AcDbTableStyle
  3
ObjectDBX Classes
 90
     4095
280
     0
281
     0
  0
CLASS
  1
MLEADERSTYLE
  2
AcDbMLeaderStyle
  3
ACDB_MLEADERSTYLE_CLASS
 90
     4095
280
     0
281
     0
  0
CLASS
  1
SUN
  2
AcDbSun
  3
SCENEOE
 90
     1153
280
     0
281
     0
  0
CLASS
  1
ACDBPLACEHOLDER
  2
AcDbPlaceHolder
  3
ObjectDBX Classes
 90
        0
280
     0
281
     0
  0
CLASS
  1
LAYOUT
  2
AcDbLayout
  3
ObjectDBX Classes
 90
        0
280
     0
281
     0
  0
ENDSEC
  0
SECTION
  2
TABLES
  0
TABLE
  2
VPORT
  5
8
330
0
100
AcDbSymbolTable
 70
     1
  0
VPORT
  5
29
330
8
100
AcDbSymbolTableRecord
100
AcDbViewportTableRecord
  2
*Active
 70
     0
 10
0.0
 20
0.0
 11
1.0
 21
1.0
 12
4200.0
 22
2970.0
 13
0.0
 23
0.0
 14
10.0
 24
10.0
 15
10.0
 25
10.0
 16
0.0
 26
0.0
 36
1.0
 17
0.0
 27
0.0
 37
0.0
 40
5940.0
 41
1.4141414141
 42
50.0
 43
0.0
 44
0.0
 50
0.0
 51
0.0
 71
     0
 72
  2000
 73
     1
 74
     3
 75
     0
 76
     0
 77
     0
 78
     0
281
     0
 65
     1
110
0.0
120
0.0
130
0.0
111
1.0
121
0.0
131
0.0
112
0.0
122
1.0
132
0.0
 79
     0
146
0.0
  0
ENDTAB
  0
TABLE
  2
LTYPE
  5
5
330
0
100
AcDbSymbolTable
 70
     6
  0
LTYPE
  5
14
330
5
100
AcDbSymbolTableRecord
100
AcDbLinetypeTableRecord
  2
ByBlock
 70
     0
  3

 72
    65
 73
     0
 40
0.0
  0
LTYPE
  5
15
330
5
100
AcDbSymbolTableRecord
100
AcDbLinetypeTableRecord
  2
ByLayer
 70
     0
  3

 72
    65
 73
     0
 40
0.0
  0
LTYPE
  5
16
330
5
100
AcDbSymbolTableRecord
100
AcDbLinetypeTableRecord
  2
Continuous
 70
     0
  3
Solid line
 72
    65
 73
     0
 40
0.0
  0
LTYPE
  5
6E
330
5
100
AcDbSymbolTableRecord
100
AcDbLinetypeTableRecord
  2
HIDDEN
 70
     0
  3
Hidden __ __ __ __ __ __ __ __ __ __ __ __ __ __
 72
    65
 73
     2
 40
1.905
 49
1.27
 74
     0
 49
-0.635
 74
     0
  0
LTYPE
  5
6F
330
5
100
AcDbSymbolTableRecord
100
AcDbLinetypeTableRecord
  2
PHANTOM
 70
     0
  3
Phantom ______  __  __  ______  __  __  ______
 72
    65
 73
     6
 40
12.7
 49
6.35
 74
     0
 49
-1.27
 74
     0
 49
1.27
 74
     0
 49
-1.27
 74
     0
 49
1.27
 74
     0
 49
-1.27
 74
     0
  0
LTYPE
  5
70
330
5
100
AcDbSymbolTableRecord
100
AcDbLinetypeTableRecord
  2
CENTER
 70
     0
  3
Center ____ _ ____ _ ____ _ ____ _ ____ _ ____
 72
    65
 73
     4
 40
10.16
 49
6.35
 74
     0
 49
-1.27
 74
     0
 49
1.27
 74
     0
 49
-1.27
 74
     0
  0
LTYPE
  5
71
330
5
100
AcDbSymbolTableRecord
100
AcDbLinetypeTableRecord
  2
CENTERX2
 70
     0
  3
Center (2x) ________  __  ________  __  _____
 72
    65
 73
     4
 40
20.32
 49
12.7
 74
     0
 49
-2.54
 74
     0
 49
2.54
 74
     0
 49
-2.54
 74
     0
  0
LTYPE
  5
72
330
5
100
AcDbSymbolTableRecord
100
AcDbLinetypeTableRecord
  2
DOT2
 70
     0
  3
Dot (.5x) ........................................
 72
    65
 73
     2
 40
0.635
 49
0.0
 74
     0
 49
-0.635
 74
     0
  0
ENDTAB
  0
TABLE
  2
LAYER
  5
2
330
0
100
AcDbSymbolTable
 70
     1
  0
LAYER
  5
10
330
2
100
AcDbSymbolTableRecord
100
AcDbLayerTableRecord
  2
0
 70
     0
 62
     7
  6
Continuous
370
    -3
390
F
  0
ENDTAB
  0
TABLE
  2
STYLE
  5
3
330
0
100
AcDbSymbolTable
 70
     2
  0
STYLE
  5
11
330
3
100
AcDbSymbolTableRecord
100
AcDbTextStyleTableRecord
  2
STANDARD
 70
     0
 40
0.0
 41
1.0
 50
0.0
 71
     0
 42
70.0
  3
GOTHIC.TTF
  4

1001
ACAD
1000
CENTURY GOTHIC
1071
       34
  0
STYLE
  5
76
330
3
100
AcDbSymbolTableRecord
100
AcDbTextStyleTableRecord
  2
SLDTEXTSTYLE0
 70
     0
 40
0.0
 41
0.913
 50
0.0
 71
     0
 42
70.0
  3
GOTHIC.TTF
  4

1001
ACAD
1000
Century Gothic
1071
      290
  0
ENDTAB
  0
TABLE
  2
VIEW
  5
6
330
0
100
AcDbSymbolTable
 70
     0
  0
ENDTAB
  0
TABLE
  2
UCS
  5
7
330
0
100
AcDbSymbolTable
 70
     0
  0
ENDTAB
  0
TABLE
  2
APPID
  5
9
330
0
100
AcDbSymbolTable
 70
     1
  0
APPID
  5
12
330
9
100
AcDbSymbolTableRecord
100
AcDbRegAppTableRecord
  2
ACAD
 70
     0
  0
ENDTAB
  0
TABLE
  2
DIMSTYLE
  5
A
330
0
100
AcDbSymbolTable
 70
     2
100
AcDbDimStyleTable
  0
DIMSTYLE
105
27
330
A
100
AcDbSymbolTableRecord
100
AcDbDimStyleTableRecord
  2
ISO-25
 70
     0
 41
2.5
 42
0.625
 43
3.75
 44
1.25
 73
     0
 74
     0
 77
     1
 78
     8
140
2.5
141
2.5
143
0.0393700787
147
0.625
171
     3
172
     1
178
     0
271
     2
272
     2
274
     3
278
    44
283
     0
284
     8
340
11
  0
DIMSTYLE
105
2F0
102
{ACAD_REACTORS
330
2EF
102
}
330
A
100
AcDbSymbolTableRecord
100
AcDbDimStyleTableRecord
  2
SLDDIMSTYLE0
 70
     0
 41
66.04
 44
0.0
 45
0.000000001
 73
     0
 74
     0
 77
     1
 78
    12
 79
     3
140
70.0
147
17.5
173
     1
178
     0
271
     2
272
     2
276
     2
284
    12
340
76
  0
ENDTAB
  0
TABLE
  2
BLOCK_RECORD
  5
1
330
0
100
AcDbSymbolTable
 70
     3
  0
BLOCK_RECORD
  5
1F
330
1
100
AcDbSymbolTableRecord
100
AcDbBlockTableRecord
  2
*Model_Space
340
22
  0
BLOCK_RECORD
  5
1B
330
1
100
AcDbSymbolTableRecord
100
AcDbBlockTableRecord
  2
*Paper_Space
340
1E
  0
BLOCK_RECORD
  5
23
330
1
100
AcDbSymbolTableRecord
100
AcDbBlockTableRecord
  2
*Paper_Space0
340
26
  0
BLOCK_RECORD
  5
73
330
1
100
AcDbSymbolTableRecord
100
AcDbBlockTableRecord
  2
SW_NOTE_0
340
0
102
{BLKREFS
331
7A
102
}
  0
BLOCK_RECORD
  5
2F1
330
1
100
AcDbSymbolTableRecord
100
AcDbBlockTableRecord
  2
_D
340
0
  0
ENDTAB
  0
ENDSEC
  0
SECTION
  2
BLOCKS
  0
BLOCK
  5
20
330
1F
100
AcDbEntity
  8
0
100
AcDbBlockBegin
  2
*Model_Space
 70
     0
 10
0.0
 20
0.0
 30
0.0
  3
*Model_Space
  1

  0
ENDBLK
  5
21
330
1F
100
AcDbEntity
  8
0
100
AcDbBlockEnd
  0
BLOCK
  5
1C
330
1B
100
AcDbEntity
 67
     1
  8
0
100
AcDbBlockBegin
  2
*Paper_Space
 70
     0
 10
0.0
 20
0.0
 30
0.0
  3
*Paper_Space
  1

  0
ENDBLK
  5
1D
330
1B
100
AcDbEntity
 67
     1
  8
0
100
AcDbBlockEnd
  0
BLOCK
  5
24
330
23
100
AcDbEntity
  8
0
100
AcDbBlockBegin
  2
*Paper_Space0
 70
     0
 10
0.0
 20
0.0
 30
0.0
  3
*Paper_Space0
  1

  0
ENDBLK
  5
25
330
23
100
AcDbEntity
  8
0
100
AcDbBlockEnd
  0
BLOCK
  5
74
330
73
100
AcDbEntity
  8
0
100
AcDbBlockBegin
  2
SW_NOTE_0
 70
     0
 10
0.0
 20
0.0
 30
0.0
  3
SW_NOTE_0
  1

  0
MTEXT
  5
77
330
73
100
AcDbEntity
  8
0
  6
Continuous
 62
     0
370
     0
100
AcDbMText
 10
703.7916666667
 20
108.1484375
 30
0.0
 40
84.6666666667
 41
0.0
 71
     2
 72
     1
  1
07.002840-C_BAC-250_DXF
  7
SLDTEXTSTYLE0
 73
     1
 44
1.0
  0
MTEXT
  5
78
330
73
100
AcDbEntity
  8
0
  6
Continuous
 62
     0
370
     0
100
AcDbMText
 10
709.3087398211
 20
-157.6293487623
 30
0.0
 40
84.6666666667
 41
0.0
 71
     2
 72
     1
  1
FORMAT: A3
  7
SLDTEXTSTYLE0
 73
     1
 44
1.0
  0
MTEXT
  5
79
330
73
100
AcDbEntity
  8
0
  6
Continuous
 62
     0
370
     0
100
AcDbMText
 10
717.3344400922
 20
-290.5182395652
 30
0.0
 40
84.6666666667
 41
0.0
 71
     2
 72
     1
  1
ECHELLE 1:20
  7
SLDTEXTSTYLE0
 73
     1
 44
1.0
  0
ENDBLK
  5
75
330
73
100
AcDbEntity
  8
0
100
AcDbBlockEnd
  0
BLOCK
  5
2F2
330
2F1
100
AcDbEntity
  8
0
100
AcDbBlockBegin
  2
_D
 70
     0
 10
0.0
 20
0.0
 30
0.0
  3
_D
  1

  0
ARC
  5
2F4
330
2F1
100
AcDbEntity
  8
0
  6
Continuous
 62
    27
370
    18
100
AcDbCircle
 10
3218.4466218404
 20
1782.3260911988
 30
0.0
 40
124.241526799912
100
AcDbArc
 50
153.4349488229
 51
206.5650511771
  0
ARC
  5
2F5
330
2F1
100
AcDbEntity
  8
0
  6
Continuous
 62
    27
370
    18
100
AcDbCircle
 10
3203.0855176798
 20
1782.3260911988
 30
0.0
 40
124.241526799912
100
AcDbArc
 50
333.4349488229
 51
26.5650511771
  0
SOLID
  5
2F6
330
2F1
100
AcDbEntity
  8
0
  6
Continuous
 62
    27
370
    18
100
AcDbTrace
 10
1710.2772304259
 20
1726.7635912882
 30
0.0
 11
1776.3172304259
 21
1716.6035912882
 31
0.0
 12
1776.3172304259
 22
1736.9235912882
 32
0.0
 13
1776.3172304259
 23
1736.9235912882
 33
0.0
  0
SOLID
  5
2F7
330
2F1
100
AcDbEntity
  8
0
  6
Continuous
 62
    27
370
    18
100
AcDbTrace
 10
4843.2772304259
 20
1726.7635912882
 30
0.0
 11
4777.2372304259
 21
1736.9235912882
 31
0.0
 12
4777.2372304259
 22
1716.6035912882
 32
0.0
 13
4777.2372304259
 23
1716.6035912882
 33
0.0
  0
LINE
  5
2F8
330
2F1
100
AcDbEntity
  8
0
  6
Continuous
 62
    27
370
    18
100
AcDbLine
 10
1710.2772304259
 20
1883.8129354325
 30
0.0
 11
1710.2772304259
 21
1706.7635912882
 31
0.0
  0
LINE
  5
2F9
330
2F1
100
AcDbEntity
  8
0
  6
Continuous
 62
    27
370
    18
100
AcDbLine
 10
4843.2772304259
 20
1887.8129354325
 30
0.0
 11
4843.2772304259
 21
1706.7635912882
 31
0.0
  0
LINE
  5
2FA
330
2F1
100
AcDbEntity
  8
0
  6
Continuous
 62
    27
370
    18
100
AcDbLine
 10
1710.2772304259
 20
1726.7635912882
 30
0.0
 11
4843.2772304259
 21
1726.7635912882
 31
0.0
  0
MTEXT
  5
2FB
330
2F1
100
AcDbEntity
  8
0
  6
Continuous
 62
    27
370
    18
100
AcDbMText
 10
3107.3216220192
 20
1816.1776502957
 30
0.0
 40
70.0
 41
0.0
 71
     1
 72
     1
  1
3133
  7
SLDTEXTSTYLE0
 73
     1
 44
1.0
  0
ENDBLK
  5
2F3
330
2F1
100
AcDbEntity
  8
0
100
AcDbBlockEnd
  0
ENDSEC
  0
SECTION
  2
ENTITIES
  0
INSERT
  5
7A
330
1F
100
AcDbEntity
  8
0
  6
Continuous
 62
    27
370
     0
100
AcDbBlockReference
  2
SW_NOTE_0
 10
5734.6187227597
 20
4906.093863407
 30
0.0
  0
LINE
  5
7B
330
1F
100
AcDbEntity
  8
0
  6
Continuous
 62
     7
370
    25
100
AcDbLine
 10
4725.2773143492
 20
1892.062935507
 30
0.0
 11
4701.2772657118
 21
1892.062935507
 31
0.0
  0
LINE
  5
7C
330
1F
100
AcDbEntity
  8
0
  6
Continuous
 62
     7
370
    25
100
AcDbLine
 10
4725.2773143492
 20
3952.0630403367
 30
0.0
 11
4701.2772657118
 21
3952.0630403367
 31
0.0
  0
ARC
  5
7D
330
1F
100
AcDbEntity
  8
0
  6
Continuous
 62
     7
370
    25
100
AcDbCircle
 10
4713.2772304259
 20
2382.0629354326
 30
0.0
 40
5.0
100
AcDbArc
 50
0.0
 51
180.0
  0
LINE
  5
7E
330
1F
100
AcDbEntity
  8
0
  6
Continuous
 62
     7
370
    25
100
AcDbLine
 10
4708.2772351943
 20
2382.06292828
 30
0.0
 11
4708.2772351943
 21
2372.0629378167
 31
0.0
  0
ARC
  5
7F
330
1F
100
AcDbEntity
  8
0
  6
Continuous
 62
     7
370
    25
100
AcDbCircle
 10
4713.2772304259
 20
2372.0629354326
 30
0.0
 40
5.0
100
AcDbArc
 50
180.0
 51
0.0
  0
LINE
  5
80
330
1F
100
AcDbEntity
  8
0
  6
Continuous
 62
     7
370
    25
100
AcDbLine
 10
4718.2773448668
 20
2372.0629378167
 30
0.0
 11
4718.2773448668
 21
2382.06292828
 31
0.0
  0
ARC
  5
81
330
1F
100
AcDbEntity
  8
0
  6
Continuous
 62
     7
370
    25
100
AcDbCircle
 10
4713.2772304259
 20
3816.0629354325
 30
0.0
 40
5.000000000000909
100
AcDbArc
 50
180.0000000001
 51
0.0000000001
  0
LINE
  5
82
330
1F
100
AcDbEntity
  8
0
  6
Continuous
 62
     7
370
    25
100
AcDbLine
 10
4718.2773448668
 20
3816.0628839341
 30
0.0
 11
4718.2773448668
 21
3846.0629745332
 31
0.0
  0
ARC
  5
83
330
1F
100
AcDbEntity
  8
0
  6
Continuous
 62
     7
370
    25
100
AcDbCircle
 10
4713.2772304259
 20
3846.0629354325
 30
0.0
 40
5.000000000000909
100
AcDbArc
 50
0.0
 51
179.9999999998
  0
LINE
  5
84
330
1F
100
AcDbEntity
  8
0
  6
Continuous
 62
     7
370
    25
100
AcDbLine
 10
4708.2772351943
 20
3846.0629745332
 30
0.0
 11
4708.2772351943
 21
3816.0628839341
 31
0.0
  0
ARC
  5
85
330
1F
100
AcDbEntity
  8
0
  6
Continuous
 62
     7
370
    25
100
AcDbCircle
 10
4713.2772304259
 20
3333.0629354326
 30
0.0
 40
5.0
100
AcDbArc
 50
180.0
 51
0.0000000001
  0
LINE
  5
86
330
1F
100
AcDbEntity
  8
0
  6
Continuous
 62
     7
370
    25
100
AcDbLine
 10
4718.2773448668
 20
3333.0629630891
 30
0.0
 11
4718.2773448668
 21
3363.0629344788
 31
0.0
  0
ARC
  5
87
330
1F
100
AcDbEntity
  8
0
  6
Continuous
 62
     7
370
    25
100
AcDbCircle
 10
4713.2772304259
 20
3363.0629354326
 30
0.0
 40
4.999999999999091
100
AcDbArc
 50
0.0000000001
 51
180.0
  0
LINE
  5
88
330
1F
100
AcDbEntity
  8
0
  6
Continuous
 62
     7
370
    25
100
AcDbLine
 10
4708.2772351943
 20
3363.0629344788
 30
0.0
 11
4708.2772351943
 21
3333.0629630891
 31
0.0
  0
ARC
  5
89
330
1F
100
AcDbEntity
  8
0
  6
Continuous
 62
     7
370
    25
100
AcDbCircle
 10
4713.2772304259
 20
2511.0629354326
 30
0.0
 40
5.0
100
AcDbArc
 50
0.0
 51
179.9999999998
  0
LINE
  5
8A
330
1F
100
AcDbEntity
  8
0
  6
Continuous
 62
     7
370
    25
100
AcDbLine
 10
4708.2772351943
 20
2511.0629363862
 30
0.0
 11
4708.2772351943
 21
2481.0629649964
 31
0.0
  0
ARC
  5
8B
330
1F
100
AcDbEntity
  8
0
  6
Continuous
 62
     7
370
    25
100
AcDbCircle
 10
4713.2772304259
 20
2481.0629354326
 30
0.0
 40
5.0
100
AcDbArc
 50
180.0
 51
0.0000000001
  0
LINE
  5
8C
330
1F
100
AcDbEntity
  8
0
  6
Continuous
 62
     7
370
    25
100
AcDbLine
 10
4718.2773448668
 20
2481.0629649964
 30
0.0
 11
4718.2773448668
 21
2511.0629363862
 31
0.0
  0
ARC
  5
8D
330
1F
100
AcDbEntity
  8
0
  6
Continuous
 62
     7
370
    25
100
AcDbCircle
 10
4713.2772304259
 20
2308.0629354326
 30
0.0
 40
5.0
100
AcDbArc
 50
0.0
 51
180.0
  0
LINE
  5
8E
330
1F
100
AcDbEntity
  8
0
  6
Continuous
 62
     7
370
    25
100
AcDbLine
 10
4708.2772351943
 20
2308.0629273263
 30
0.0
 11
4708.2772351943
 21
2298.062936863
 31
0.0
  0
ARC
  5
8F
330
1F
100
AcDbEntity
  8
0
  6
Continuous
 62
     7
370
    25
100
AcDbCircle
 10
4713.2772304259
 20
2298.0629354326
 30
0.0
 40
5.0
100
AcDbArc
 50
180.0
 51
0.0
  0
LINE
  5
90
330
1F
100
AcDbEntity
  8
0
  6
Continuous
 62
     7
370
    25
100
AcDbLine
 10
4718.2773448668
 20
2298.062936863
 30
0.0
 11
4718.2773448668
 21
2308.0629273263
 31
0.0
  0
ARC
  5
91
330
1F
100
AcDbEntity
  8
0
  6
Continuous
 62
     7
370
    25
100
AcDbCircle
 10
4713.2772304259
 20
1957.0629354326
 30
0.0
 40
4.999999999999091
100
AcDbArc
 50
360.0
 51
180.0
  0
LINE
  5
92
330
1F
100
AcDbEntity
  8
0
  6
Continuous
 62
     7
370
    25
100
AcDbLine
 10
4708.2772351943
 20
1957.0629349855
 30
0.0
 11
4708.2772351943
 21
1947.8129348663
 31
0.0
  0
LINE
  5
93
330
1F
100
AcDbEntity
  8
0
  6
Continuous
 62
     7
370
    25
100
AcDbLine
 10
4708.2772351943
 20
1925.3129358349
 30
0.0
 11
4708.2772351943
 21
1921.0629356039
 31
0.0
  0
ARC
  5
94
330
1F
100
AcDbEntity
  8
0
  6
Continuous
 62
     7
370
    25
100
AcDbCircle
 10
4713.2772304259
 20
1921.0629354326
 30
0.0
 40
5.0
100
AcDbArc
 50
180.0
 51
238.2116693844
  0
ARC
  5
95
330
1F
100
AcDbEntity
  8
0
  6
Continuous
 62
     7
370
    25
100
AcDbCircle
 10
4713.2772304259
 20
1921.0629354326
 30
0.0
 40
4.999999999999387
100
AcDbArc
 50
301.7883306156
 51
0.0
  0
LINE
  5
96
330
1F
100
AcDbEntity
  8
0
  6
Continuous
 62
     7
370
    25
100
AcDbLine
 10
4718.2773448668
 20
1921.0629356039
 30
0.0
 11
4718.2773448668
 21
1925.3129358349
 31
0.0
  0
LINE
  5
97
330
1F
100
AcDbEntity
  8
0
  6
Continuous
 62
     7
370
    25
100
AcDbLine
 10
4718.2773448668
 20
1947.8129348663
 30
0.0
 11
4718.2773448668
 21
1957.0629349855
 31
0.0
  0
ARC
  5
98
330
1F
100
AcDbEntity
  8
0
  6
Continuous
 62
     7
370
    25
100
AcDbCircle
 10
4713.2772304259
 20
3462.0629354325
 30
0.0
 40
5.0
100
AcDbArc
 50
180.0
 51
0.0
  0
LINE
  5
99
330
1F
100
AcDbEntity
  8
0
  6
Continuous
 62
     7
370
    25
100
AcDbLine
 10
4718.2773448668
 20
3462.0629115907
 30
0.0
 11
4718.2773448668
 21
3472.0629020539
 31
0.0
  0
ARC
  5
9A
330
1F
100
AcDbEntity
  8
0
  6
Continuous
 62
     7
370
    25
100
AcDbCircle
 10
4713.2772304259
 20
3472.0629354325
 30
0.0
 40
5.0
100
AcDbArc
 50
0.0
 51
180.0
  0
LINE
  5
9B
330
1F
100
AcDbEntity
  8
0
  6
Continuous
 62
     7
370
    25
100
AcDbLine
 10
4708.2772351943
 20
3472.0629020539
 30
0.0
 11
4708.2772351943
 21
3462.0629115907
 31
0.0
  0
ARC
  5
9C
330
1F
100
AcDbEntity
  8
0
  6
Continuous
 62
     7
370
    25
100
AcDbCircle
 10
4713.2772304259
 20
3536.0629354325
 30
0.0
 40
5.0
100
AcDbArc
 50
180.0
 51
0.0
  0
LINE
  5
9D
330
1F
100
AcDbEntity
  8
0
  6
Continuous
 62
     7
370
    25
100
AcDbLine
 10
4718.2773448668
 20
3536.0629125443
 30
0.0
 11
4718.2773448668
 21
3546.0629030076
 31
0.0
  0
ARC
  5
9E
330
1F
100
AcDbEntity
  8
0
  6
Continuous
 62
     7
370
    25
100
AcDbCircle
 10
4713.2772304259
 20
3546.0629354325
 30
0.0
 40
5.0
100
AcDbArc
 50
0.0000000001
 51
179.9999999999
  0
LINE
  5
9F
330
1F
100
AcDbEntity
  8
0
  6
Continuous
 62
     7
370
    25
100
AcDbLine
 10
4708.2772351943
 20
3546.0629030076
 30
0.0
 11
4708.2772351943
 21
3536.0629125443
 31
0.0
  0
ARC
  5
A0
330
1F
100
AcDbEntity
  8
0
  6
Continuous
 62
     7
370
    25
100
AcDbCircle
 10
4713.2772304259
 20
2028.0629354326
 30
0.0
 40
5.000000000000909
100
AcDbArc
 50
0.0000000001
 51
180.0
  0
LINE
  5
A1
330
1F
100
AcDbEntity
  8
0
  6
Continuous
 62
     7
370
    25
100
AcDbLine
 10
4708.2772351943
 20
2028.0629335848
 30
0.0
 11
4708.2772351943
 21
1998.0629323927
 31
0.0
  0
ARC
  5
A2
330
1F
100
AcDbEntity
  8
0
  6
Continuous
 62
     7
370
    25
100
AcDbCircle
 10
4713.2772304259
 20
1998.0629354326
 30
0.0
 40
5.0
100
AcDbArc
 50
180.0
 51
0.0000000001
  0
LINE
  5
A3
330
1F
100
AcDbEntity
  8
0
  6
Continuous
 62
     7
370
    25
100
AcDbLine
 10
4718.2773448668
 20
1998.0629323927
 30
0.0
 11
4718.2773448668
 21
2028.0629335848
 31
0.0
  0
LINE
  5
A4
330
1F
100
AcDbEntity
  8
0
  6
Continuous
 62
     7
370
    25
100
AcDbLine
 10
4718.2773448668
 20
3892.3129602281
 30
0.0
 11
4718.2773448668
 21
3900.8129402009
 31
0.0
  0
LINE
  5
A5
330
1F
100
AcDbEntity
  8
0
  6
Continuous
 62
     7
370
    25
100
AcDbLine
 10
4718.2773448668
 20
3913.8128324357
 30
0.0
 11
4718.2773448668
 21
3923.0629964677
 31
0.0
  0
ARC
  5
A6
330
1F
100
AcDbEntity
  8
0
  6
Continuous
 62
     7
370
    25
100
AcDbCircle
 10
4713.2772304259
 20
3923.0629354325
 30
0.0
 40
5.0
100
AcDbArc
 50
0.0
 51
180.0
  0
LINE
  5
A7
330
1F
100
AcDbEntity
  8
0
  6
Continuous
 62
     7
370
    25
100
AcDbLine
 10
4708.2772351943
 20
3923.0629964677
 30
0.0
 11
4708.2772351943
 21
3913.8128324357
 31
0.0
  0
LINE
  5
A8
330
1F
100
AcDbEntity
  8
0
  6
Continuous
 62
     7
370
    25
100
AcDbLine
 10
4708.2772351943
 20
3900.8129402009
 30
0.0
 11
4708.2772351943
 21
3892.3129602281
 31
0.0
  0
LINE
  5
A9
330
1F
100
AcDbEntity
  8
0
  6
Continuous
 62
     7
370
    25
100
AcDbLine
 10
4701.2772657118
 20
1892.062935507
 30
0.0
 11
4697.277198001
 21
1892.062935507
 31
0.0
  0
LINE
  5
AA
330
1F
100
AcDbEntity
  8
0
  6
Continuous
 62
     7
370
    25
100
AcDbLine
 10
4697.277198001
 20
1892.062935507
 30
0.0
 11
4697.277198001
 21
1903.8129353375
 31
0.0
  0
LINE
  5
AB
330
1F
100
AcDbEntity
  8
0
  6
Continuous
 62
     7
370
    25
100
AcDbLine
 10
4697.277198001
 20
1947.8129348663
 30
0.0
 11
4697.277198001
 21
1994.062931737
 31
0.0
  0
LINE
  5
AC
330
1F
100
AcDbEntity
  8
0
  6
Continuous
 62
     7
370
    25
100
AcDbLine
 10
4697.277198001
 20
1994.062931737
 30
0.0
 11
4697.277198001
 21
2032.0629342404
 31
0.0
  0
LINE
  5
AD
330
1F
100
AcDbEntity
  8
0
  6
Continuous
 62
     7
370
    25
100
AcDbLine
 10
4697.277198001
 20
2032.0629342404
 30
0.0
 11
4697.277198001
 21
2284.0629382935
 31
0.0
  0
LINE
  5
AE
330
1F
100
AcDbEntity
  8
0
  6
Continuous
 62
     7
370
    25
100
AcDbLine
 10
4697.277198001
 20
2284.0629382935
 30
0.0
 11
4697.277198001
 21
2322.0629258958
 31
0.0
  0
LINE
  5
AF
330
1F
100
AcDbEntity
  8
0
  6
Continuous
 62
     7
370
    25
100
AcDbLine
 10
4697.277198001
 20
2322.0629258958
 30
0.0
 11
4697.277198001
 21
2358.0629392472
 31
0.0
  0
LINE
  5
B0
330
1F
100
AcDbEntity
  8
0
  6
Continuous
 62
     7
370
    25
100
AcDbLine
 10
4697.277198001
 20
2358.0629392472
 30
0.0
 11
4697.277198001
 21
2396.0629268495
 31
0.0
  0
LINE
  5
B1
330
1F
100
AcDbEntity
  8
0
  6
Continuous
 62
     7
370
    25
100
AcDbLine
 10
4697.277198001
 20
2396.0629268495
 30
0.0
 11
4697.277198001
 21
2477.0629568902
 31
0.0
  0
LINE
  5
B2
330
1F
100
AcDbEntity
  8
0
  6
Continuous
 62
     7
370
    25
100
AcDbLine
 10
4697.277198001
 20
2477.0629568902
 30
0.0
 11
4697.277198001
 21
2515.0629444924
 31
0.0
  0
LINE
  5
B3
330
1F
100
AcDbEntity
  8
0
  6
Continuous
 62
     7
370
    25
100
AcDbLine
 10
4697.277198001
 20
2515.0629444924
 30
0.0
 11
4697.277198001
 21
3329.0628953782
 31
0.0
  0
LINE
  5
B4
330
1F
100
AcDbEntity
  8
0
  6
Continuous
 62
     7
370
    25
100
AcDbLine
 10
4697.277198001
 20
3329.0628953782
 30
0.0
 11
4697.277198001
 21
3367.0628829804
 31
0.0
  0
LINE
  5
B5
330
1F
100
AcDbEntity
  8
0
  6
Continuous
 62
     7
370
    25
100
AcDbLine
 10
4697.277198001
 20
3367.0628829804
 30
0.0
 11
4697.277198001
 21
3448.0629726258
 31
0.0
  0
LINE
  5
B6
330
1F
100
AcDbEntity
  8
0
  6
Continuous
 62
     7
370
    25
100
AcDbLine
 10
4697.277198001
 20
3448.0629726258
 30
0.0
 11
4697.277198001
 21
3486.0629602281
 31
0.0
  0
LINE
  5
B7
330
1F
100
AcDbEntity
  8
0
  6
Continuous
 62
     7
370
    25
100
AcDbLine
 10
4697.277198001
 20
3486.0629602281
 30
0.0
 11
4697.277198001
 21
3522.0629735795
 31
0.0
  0
LINE
  5
B8
330
1F
100
AcDbEntity
  8
0
  6
Continuous
 62
     7
370
    25
100
AcDbLine
 10
4697.277198001
 20
3522.0629735795
 30
0.0
 11
4697.277198001
 21
3560.0629611817
 31
0.0
  0
LINE
  5
B9
330
1F
100
AcDbEntity
  8
0
  6
Continuous
 62
     7
370
    25
100
AcDbLine
 10
4697.277198001
 20
3560.0629611817
 30
0.0
 11
4697.277198001
 21
3812.0629354325
 31
0.0
  0
LINE
  5
BA
330
1F
100
AcDbEntity
  8
0
  6
Continuous
 62
     7
370
    25
100
AcDbLine
 10
4697.277198001
 20
3812.0629354325
 30
0.0
 11
4697.277198001
 21
3850.0629230348
 31
0.0
  0
LINE
  5
BB
330
1F
100
AcDbEntity
  8
0
  6
Continuous
 62
     7
370
    25
100
AcDbLine
 10
4697.277198001
 20
3850.0629230348
 30
0.0
 11
4697.277198001
 21
3869.8129220811
 31
0.0
  0
LINE
  5
BC
330
1F
100
AcDbEntity
  8
0
  6
Continuous
 62
     7
370
    25
100
AcDbLine
 10
4697.277198001
 20
3913.8128324357
 30
0.0
 11
4697.277198001
 21
3952.0630403367
 31
0.0
  0
LINE
  5
BD
330
1F
100
AcDbEntity
  8
0
  6
Continuous
 62
     7
370
    25
100
AcDbLine
 10
4697.277198001
 20
3952.0630403367
 30
0.0
 11
4701.2772657118
 21
3952.0630403367
 31
0.0
  0
LINE
  5
BE
330
1F
100
AcDbEntity
  8
0
  6
Continuous
 62
     7
370
    25
100
AcDbLine
 10
4729.2772628508
 20
1892.062935507
 30
0.0
 11
4729.2772628508
 21
1903.8129353375
 31
0.0
  0
LINE
  5
BF
330
1F
100
AcDbEntity
  8
0
  6
Continuous
 62
     7
370
    25
100
AcDbLine
 10
4729.2772628508
 20
1916.8129353729
 30
0.0
 11
4729.2772628508
 21
1925.3129358349
 31
0.0
  0
LINE
  5
C0
330
1F
100
AcDbEntity
  8
0
  6
Continuous
 62
     7
370
    25
100
AcDbLine
 10
4729.2772628508
 20
1947.8129348663
 30
0.0
 11
4729.2772628508
 21
3869.8129220811
 31
0.0
  0
LINE
  5
C1
330
1F
100
AcDbEntity
  8
0
  6
Continuous
 62
     7
370
    25
100
AcDbLine
 10
4729.2772628508
 20
3892.3129602281
 30
0.0
 11
4729.2772628508
 21
3900.8129402009
 31
0.0
  0
LINE
  5
C2
330
1F
100
AcDbEntity
  8
0
  6
Continuous
 62
     7
370
    25
100
AcDbLine
 10
4729.2772628508
 20
3913.8128324357
 30
0.0
 11
4729.2772628508
 21
3952.0630403367
 31
0.0
  0
LINE
  5
C3
330
1F
100
AcDbEntity
  8
0
  6
Continuous
 62
     7
370
    25
100
AcDbLine
 10
4729.2772628508
 20
1892.062935507
 30
0.0
 11
4725.2773143492
 21
1892.062935507
 31
0.0
  0
LINE
  5
C4
330
1F
100
AcDbEntity
  8
0
  6
Continuous
 62
     7
370
    25
100
AcDbLine
 10
4725.2773143492
 20
3952.0630403367
 30
0.0
 11
4729.2772628508
 21
3952.0630403367
 31
0.0
  0
LINE
  5
C5
330
1F
100
AcDbEntity
  8
0
  6
Continuous
 62
     7
370
    25
100
AcDbLine
 10
4757.2771407805
 20
1892.062935507
 30
0.0
 11
4759.2772342406
 21
1892.062935507
 31
0.0
  0
LINE
  5
C6
330
1F
100
AcDbEntity
  8
0
  6
Continuous
 62
     7
370
    25
100
AcDbLine
 10
4757.2771407805
 20
1892.062935507
 30
0.0
 11
4757.2771407805
 21
1903.8129353375
 31
0.0
  0
LINE
  5
C7
330
1F
100
AcDbEntity
  8
0
  6
Continuous
 62
     7
370
    25
100
AcDbLine
 10
4757.2771407805
 20
1947.8129348663
 30
0.0
 11
4757.2771407805
 21
3869.8129220811
 31
0.0
  0
LINE
  5
C8
330
1F
100
AcDbEntity
  8
0
  6
Continuous
 62
     7
370
    25
100
AcDbLine
 10
4757.2771407805
 20
3913.8128324357
 30
0.0
 11
4757.2771407805
 21
3952.0630403367
 31
0.0
  0
LINE
  5
C9
330
1F
100
AcDbEntity
  8
0
  6
Continuous
 62
     7
370
    25
100
AcDbLine
 10
4757.2771407805
 20
3952.0630403367
 30
0.0
 11
4759.2772342406
 21
3952.0630403367
 31
0.0
  0
LINE
  5
CA
330
1F
100
AcDbEntity
  8
0
  6
Continuous
 62
     7
370
    25
100
AcDbLine
 10
4759.2772342406
 20
1892.062935507
 30
0.0
 11
4759.2772342406
 21
1903.8129353375
 31
0.0
  0
LINE
  5
CB
330
1F
100
AcDbEntity
  8
0
  6
Continuous
 62
     7
370
    25
100
AcDbLine
 10
4759.2772342406
 20
1947.8129348663
 30
0.0
 11
4759.2772342406
 21
3869.8129220811
 31
0.0
  0
LINE
  5
CC
330
1F
100
AcDbEntity
  8
0
  6
Continuous
 62
     7
370
    25
100
AcDbLine
 10
4759.2772342406
 20
3913.8128324357
 30
0.0
 11
4759.2772342406
 21
3952.0630403367
 31
0.0
  0
LINE
  5
CD
330
1F
100
AcDbEntity
  8
0
  6
Continuous
 62
     7
370
    25
100
AcDbLine
 10
4755.277285739
 20
1892.062935507
 30
0.0
 11
4757.2771407805
 21
1892.062935507
 31
0.0
  0
LINE
  5
CE
330
1F
100
AcDbEntity
  8
0
  6
Continuous
 62
     7
370
    25
100
AcDbLine
 10
4757.2771407805
 20
3952.0630403367
 30
0.0
 11
4755.277285739
 21
3952.0630403367
 31
0.0
  0
LINE
  5
CF
330
1F
100
AcDbEntity
  8
0
  6
Continuous
 62
     7
370
    25
100
AcDbLine
 10
4729.2772628508
 20
1892.062935507
 30
0.0
 11
4755.277285739
 21
1892.062935507
 31
0.0
  0
LINE
  5
D0
330
1F
100
AcDbEntity
  8
0
  6
Continuous
 62
     7
370
    25
100
AcDbLine
 10
4729.2772628508
 20
3952.0630403367
 30
0.0
 11
4755.277285739
 21
3952.0630403367
 31
0.0
  0
LINE
  5
D1
330
1F
100
AcDbEntity
  8
0
  6
Continuous
 62
     7
370
    25
100
AcDbLine
 10
3975.2771951399
 20
1892.062935507
 30
0.0
 11
3951.2772657118
 21
1892.062935507
 31
0.0
  0
LINE
  5
D2
330
1F
100
AcDbEntity
  8
0
  6
Continuous
 62
     7
370
    25
100
AcDbLine
 10
3975.2771951399
 20
3952.0630403367
 30
0.0
 11
3951.2772657118
 21
3952.0630403367
 31
0.0
  0
ARC
  5
D3
330
1F
100
AcDbEntity
  8
0
  6
Continuous
 62
     7
370
    25
100
AcDbCircle
 10
3963.2772304259
 20
2382.0629354326
 30
0.0
 40
4.999999999999545
100
AcDbArc
 50
0.0
 51
180.0
  0
LINE
  5
D4
330
1F
100
AcDbEntity
  8
0
  6
Continuous
 62
     7
370
    25
100
AcDbLine
 10
3958.2772351943
 20
2382.06292828
 30
0.0
 11
3958.2772351943
 21
2372.0629378167
 31
0.0
  0
ARC
  5
D5
330
1F
100
AcDbEntity
  8
0
  6
Continuous
 62
     7
370
    25
100
AcDbCircle
 10
3963.2772304259
 20
2372.0629354326
 30
0.0
 40
4.999999999999545
100
AcDbArc
 50
180.0
 51
0.0
  0
LINE
  5
D6
330
1F
100
AcDbEntity
  8
0
  6
Continuous
 62
     7
370
    25
100
AcDbLine
 10
3968.2772256575
 20
2372.0629378167
 30
0.0
 11
3968.2772256575
 21
2382.06292828
 31
0.0
  0
ARC
  5
D7
330
1F
100
AcDbEntity
  8
0
  6
Continuous
 62
     7
370
    25
100
AcDbCircle
 10
3963.2772304259
 20
3816.0629354325
 30
0.0
 40
5.000000000000455
100
AcDbArc
 50
179.9999999999
 51
0.0000000001
  0
LINE
  5
D8
330
1F
100
AcDbEntity
  8
0
  6
Continuous
 62
     7
370
    25
100
AcDbLine
 10
3968.2772256575
 20
3816.0628839341
 30
0.0
 11
3968.2772256575
 21
3846.0629745332
 31
0.0
  0
ARC
  5
D9
330
1F
100
AcDbEntity
  8
0
  6
Continuous
 62
     7
370
    25
100
AcDbCircle
 10
3963.2772304259
 20
3846.0629354325
 30
0.0
 40
5.000000000000455
100
AcDbArc
 50
0.0
 51
179.9999999998
  0
LINE
  5
DA
330
1F
100
AcDbEntity
  8
0
  6
Continuous
 62
     7
370
    25
100
AcDbLine
 10
3958.2772351943
 20
3846.0629745332
 30
0.0
 11
3958.2772351943
 21
3816.0628839341
 31
0.0
  0
ARC
  5
DB
330
1F
100
AcDbEntity
  8
0
  6
Continuous
 62
     7
370
    25
100
AcDbCircle
 10
3963.2772304259
 20
3333.0629354326
 30
0.0
 40
4.999999999999545
100
AcDbArc
 50
180.0
 51
0.0000000001
  0
LINE
  5
DC
330
1F
100
AcDbEntity
  8
0
  6
Continuous
 62
     7
370
    25
100
AcDbLine
 10
3968.2772256575
 20
3333.0629630891
 30
0.0
 11
3968.2772256575
 21
3363.0629344788
 31
0.0
  0
ARC
  5
DD
330
1F
100
AcDbEntity
  8
0
  6
Continuous
 62
     7
370
    25
100
AcDbCircle
 10
3963.2772304259
 20
3363.0629354326
 30
0.0
 40
4.999999999999091
100
AcDbArc
 50
0.0000000001
 51
180.0
  0
LINE
  5
DE
330
1F
100
AcDbEntity
  8
0
  6
Continuous
 62
     7
370
    25
100
AcDbLine
 10
3958.2772351943
 20
3363.0629344788
 30
0.0
 11
3958.2772351943
 21
3333.0629630891
 31
0.0
  0
ARC
  5
DF
330
1F
100
AcDbEntity
  8
0
  6
Continuous
 62
     7
370
    25
100
AcDbCircle
 10
3963.2772304259
 20
2511.0629354326
 30
0.0
 40
4.999999999999545
100
AcDbArc
 50
0.0
 51
179.9999999998
  0
LINE
  5
E0
330
1F
100
AcDbEntity
  8
0
  6
Continuous
 62
     7
370
    25
100
AcDbLine
 10
3958.2772351943
 20
2511.0629363862
 30
0.0
 11
3958.2772351943
 21
2481.0629649964
 31
0.0
  0
ARC
  5
E1
330
1F
100
AcDbEntity
  8
0
  6
Continuous
 62
     7
370
    25
100
AcDbCircle
 10
3963.2772304259
 20
2481.0629354326
 30
0.0
 40
4.999999999999545
100
AcDbArc
 50
180.0
 51
0.0000000001
  0
LINE
  5
E2
330
1F
100
AcDbEntity
  8
0
  6
Continuous
 62
     7
370
    25
100
AcDbLine
 10
3968.2772256575
 20
2481.0629649964
 30
0.0
 11
3968.2772256575
 21
2511.0629363862
 31
0.0
  0
ARC
  5
E3
330
1F
100
AcDbEntity
  8
0
  6
Continuous
 62
     7
370
    25
100
AcDbCircle
 10
3963.2772304259
 20
2308.0629354326
 30
0.0
 40
4.999999999999545
100
AcDbArc
 50
0.0
 51
180.0
  0
LINE
  5
E4
330
1F
100
AcDbEntity
  8
0
  6
Continuous
 62
     7
370
    25
100
AcDbLine
 10
3958.2772351943
 20
2308.0629273263
 30
0.0
 11
3958.2772351943
 21
2298.062936863
 31
0.0
  0
ARC
  5
E5
330
1F
100
AcDbEntity
  8
0
  6
Continuous
 62
     7
370
    25
100
AcDbCircle
 10
3963.2772304259
 20
2298.0629354326
 30
0.0
 40
4.999999999999545
100
AcDbArc
 50
180.0
 51
0.0
  0
LINE
  5
E6
330
1F
100
AcDbEntity
  8
0
  6
Continuous
 62
     7
370
    25
100
AcDbLine
 10
3968.2772256575
 20
2298.062936863
 30
0.0
 11
3968.2772256575
 21
2308.0629273263
 31
0.0
  0
ARC
  5
E7
330
1F
100
AcDbEntity
  8
0
  6
Continuous
 62
     7
370
    25
100
AcDbCircle
 10
3963.2772304259
 20
1957.0629354326
 30
0.0
 40
4.999999999999545
100
AcDbArc
 50
360.0
 51
180.0
  0
LINE
  5
E8
330
1F
100
AcDbEntity
  8
0
  6
Continuous
 62
     7
370
    25
100
AcDbLine
 10
3958.2772351943
 20
1957.0629349855
 30
0.0
 11
3958.2772351943
 21
1947.8129348663
 31
0.0
  0
LINE
  5
E9
330
1F
100
AcDbEntity
  8
0
  6
Continuous
 62
     7
370
    25
100
AcDbLine
 10
3958.2772351943
 20
1925.3129358349
 30
0.0
 11
3958.2772351943
 21
1921.0629356039
 31
0.0
  0
ARC
  5
EA
330
1F
100
AcDbEntity
  8
0
  6
Continuous
 62
     7
370
    25
100
AcDbCircle
 10
3963.2772304259
 20
1921.0629354326
 30
0.0
 40
5.0
100
AcDbArc
 50
180.0
 51
238.2116693844
  0
ARC
  5
EB
330
1F
100
AcDbEntity
  8
0
  6
Continuous
 62
     7
370
    25
100
AcDbCircle
 10
3963.2772304259
 20
1921.0629354326
 30
0.0
 40
4.999999999999303
100
AcDbArc
 50
301.7883306156
 51
0.0
  0
LINE
  5
EC
330
1F
100
AcDbEntity
  8
0
  6
Continuous
 62
     7
370
    25
100
AcDbLine
 10
3968.2772256575
 20
1921.0629356039
 30
0.0
 11
3968.2772256575
 21
1925.3129358349
 31
0.0
  0
LINE
  5
ED
330
1F
100
AcDbEntity
  8
0
  6
Continuous
 62
     7
370
    25
100
AcDbLine
 10
3968.2772256575
 20
1947.8129348663
 30
0.0
 11
3968.2772256575
 21
1957.0629349855
 31
0.0
  0
ARC
  5
EE
330
1F
100
AcDbEntity
  8
0
  6
Continuous
 62
     7
370
    25
100
AcDbCircle
 10
3963.2772304259
 20
3462.0629354325
 30
0.0
 40
4.999999999999545
100
AcDbArc
 50
180.0
 51
0.0
  0
LINE
  5
EF
330
1F
100
AcDbEntity
  8
0
  6
Continuous
 62
     7
370
    25
100
AcDbLine
 10
3968.2772256575
 20
3462.0629115907
 30
0.0
 11
3968.2772256575
 21
3472.0629020539
 31
0.0
  0
ARC
  5
F0
330
1F
100
AcDbEntity
  8
0
  6
Continuous
 62
     7
370
    25
100
AcDbCircle
 10
3963.2772304259
 20
3472.0629354325
 30
0.0
 40
5.0
100
AcDbArc
 50
0.0
 51
180.0
  0
LINE
  5
F1
330
1F
100
AcDbEntity
  8
0
  6
Continuous
 62
     7
370
    25
100
AcDbLine
 10
3958.2772351943
 20
3472.0629020539
 30
0.0
 11
3958.2772351943
 21
3462.0629115907
 31
0.0
  0
ARC
  5
F2
330
1F
100
AcDbEntity
  8
0
  6
Continuous
 62
     7
370
    25
100
AcDbCircle
 10
3963.2772304259
 20
3536.0629354325
 30
0.0
 40
5.0
100
AcDbArc
 50
180.0
 51
0.0
  0
LINE
  5
F3
330
1F
100
AcDbEntity
  8
0
  6
Continuous
 62
     7
370
    25
100
AcDbLine
 10
3968.2772256575
 20
3536.0629125443
 30
0.0
 11
3968.2772256575
 21
3546.0629030076
 31
0.0
  0
ARC
  5
F4
330
1F
100
AcDbEntity
  8
0
  6
Continuous
 62
     7
370
    25
100
AcDbCircle
 10
3963.2772304259
 20
3546.0629354325
 30
0.0
 40
5.000000000000455
100
AcDbArc
 50
0.0000000001
 51
179.9999999999
  0
LINE
  5
F5
330
1F
100
AcDbEntity
  8
0
  6
Continuous
 62
     7
370
    25
100
AcDbLine
 10
3958.2772351943
 20
3546.0629030076
 30
0.0
 11
3958.2772351943
 21
3536.0629125443
 31
0.0
  0
ARC
  5
F6
330
1F
100
AcDbEntity
  8
0
  6
Continuous
 62
     7
370
    25
100
AcDbCircle
 10
3963.2772304259
 20
2028.0629354326
 30
0.0
 40
5.000000000000909
100
AcDbArc
 50
0.0000000001
 51
180.0
  0
LINE
  5
F7
330
1F
100
AcDbEntity
  8
0
  6
Continuous
 62
     7
370
    25
100
AcDbLine
 10
3958.2772351943
 20
2028.0629335848
 30
0.0
 11
3958.2772351943
 21
1998.0629323927
 31
0.0
  0
ARC
  5
F8
330
1F
100
AcDbEntity
  8
0
  6
Continuous
 62
     7
370
    25
100
AcDbCircle
 10
3963.2772304259
 20
1998.0629354326
 30
0.0
 40
5.000000000000455
100
AcDbArc
 50
180.0
 51
0.0000000001
  0
LINE
  5
F9
330
1F
100
AcDbEntity
  8
0
  6
Continuous
 62
     7
370
    25
100
AcDbLine
 10
3968.2772256575
 20
1998.0629323927
 30
0.0
 11
3968.2772256575
 21
2028.0629335848
 31
0.0
  0
LINE
  5
FA
330
1F
100
AcDbEntity
  8
0
  6
Continuous
 62
     7
370
    25
100
AcDbLine
 10
3968.2772256575
 20
3892.3129602281
 30
0.0
 11
3968.2772256575
 21
3900.8129402009
 31
0.0
  0
LINE
  5
FB
330
1F
100
AcDbEntity
  8
0
  6
Continuous
 62
     7
370
    25
100
AcDbLine
 10
3968.2772256575
 20
3913.8128324357
 30
0.0
 11
3968.2772256575
 21
3923.0629964677
 31
0.0
  0
ARC
  5
FC
330
1F
100
AcDbEntity
  8
0
  6
Continuous
 62
     7
370
    25
100
AcDbCircle
 10
3963.2772304259
 20
3923.0629354325
 30
0.0
 40
4.999999999999545
100
AcDbArc
 50
0.0
 51
180.0
  0
LINE
  5
FD
330
1F
100
AcDbEntity
  8
0
  6
Continuous
 62
     7
370
    25
100
AcDbLine
 10
3958.2772351943
 20
3923.0629964677
 30
0.0
 11
3958.2772351943
 21
3913.8128324357
 31
0.0
  0
LINE
  5
FE
330
1F
100
AcDbEntity
  8
0
  6
Continuous
 62
     7
370
    25
100
AcDbLine
 10
3958.2772351943
 20
3900.8129402009
 30
0.0
 11
3958.2772351943
 21
3892.3129602281
 31
0.0
  0
LINE
  5
FF
330
1F
100
AcDbEntity
  8
0
  6
Continuous
 62
     7
370
    25
100
AcDbLine
 10
3951.2772657118
 20
1892.062935507
 30
0.0
 11
3947.277198001
 21
1892.062935507
 31
0.0
  0
LINE
  5
100
330
1F
100
AcDbEntity
  8
0
  6
Continuous
 62
     7
370
    25
100
AcDbLine
 10
3947.277198001
 20
1892.062935507
 30
0.0
 11
3947.277198001
 21
1903.8129353375
 31
0.0
  0
LINE
  5
101
330
1F
100
AcDbEntity
  8
0
  6
Continuous
 62
     7
370
    25
100
AcDbLine
 10
3947.277198001
 20
1916.8129353729
 30
0.0
 11
3947.277198001
 21
1925.3129358349
 31
0.0
  0
LINE
  5
102
330
1F
100
AcDbEntity
  8
0
  6
Continuous
 62
     7
370
    25
100
AcDbLine
 10
3947.277198001
 20
1947.8129348663
 30
0.0
 11
3947.277198001
 21
1994.062931737
 31
0.0
  0
LINE
  5
103
330
1F
100
AcDbEntity
  8
0
  6
Continuous
 62
     7
370
    25
100
AcDbLine
 10
3947.277198001
 20
1994.062931737
 30
0.0
 11
3947.277198001
 21
2032.0629342404
 31
0.0
  0
LINE
  5
104
330
1F
100
AcDbEntity
  8
0
  6
Continuous
 62
     7
370
    25
100
AcDbLine
 10
3947.277198001
 20
2032.0629342404
 30
0.0
 11
3947.277198001
 21
2284.0629382935
 31
0.0
  0
LINE
  5
105
330
1F
100
AcDbEntity
  8
0
  6
Continuous
 62
     7
370
    25
100
AcDbLine
 10
3947.277198001
 20
2284.0629382935
 30
0.0
 11
3947.277198001
 21
2322.0629258958
 31
0.0
  0
LINE
  5
106
330
1F
100
AcDbEntity
  8
0
  6
Continuous
 62
     7
370
    25
100
AcDbLine
 10
3947.277198001
 20
2322.0629258958
 30
0.0
 11
3947.277198001
 21
2358.0629392472
 31
0.0
  0
LINE
  5
107
330
1F
100
AcDbEntity
  8
0
  6
Continuous
 62
     7
370
    25
100
AcDbLine
 10
3947.277198001
 20
2358.0629392472
 30
0.0
 11
3947.277198001
 21
2396.0629268495
 31
0.0
  0
LINE
  5
108
330
1F
100
AcDbEntity
  8
0
  6
Continuous
 62
     7
370
    25
100
AcDbLine
 10
3947.277198001
 20
2396.0629268495
 30
0.0
 11
3947.277198001
 21
2477.0629568902
 31
0.0
  0
LINE
  5
109
330
1F
100
AcDbEntity
  8
0
  6
Continuous
 62
     7
370
    25
100
AcDbLine
 10
3947.277198001
 20
2477.0629568902
 30
0.0
 11
3947.277198001
 21
2515.0629444924
 31
0.0
  0
LINE
  5
10A
330
1F
100
AcDbEntity
  8
0
  6
Continuous
 62
     7
370
    25
100
AcDbLine
 10
3947.277198001
 20
2515.0629444924
 30
0.0
 11
3947.277198001
 21
3329.0628953782
 31
0.0
  0
LINE
  5
10B
330
1F
100
AcDbEntity
  8
0
  6
Continuous
 62
     7
370
    25
100
AcDbLine
 10
3947.277198001
 20
3329.0628953782
 30
0.0
 11
3947.277198001
 21
3367.0628829804
 31
0.0
  0
LINE
  5
10C
330
1F
100
AcDbEntity
  8
0
  6
Continuous
 62
     7
370
    25
100
AcDbLine
 10
3947.277198001
 20
3367.0628829804
 30
0.0
 11
3947.277198001
 21
3448.0629726258
 31
0.0
  0
LINE
  5
10D
330
1F
100
AcDbEntity
  8
0
  6
Continuous
 62
     7
370
    25
100
AcDbLine
 10
3947.277198001
 20
3448.0629726258
 30
0.0
 11
3947.277198001
 21
3486.0629602281
 31
0.0
  0
LINE
  5
10E
330
1F
100
AcDbEntity
  8
0
  6
Continuous
 62
     7
370
    25
100
AcDbLine
 10
3947.277198001
 20
3486.0629602281
 30
0.0
 11
3947.277198001
 21
3522.0629735795
 31
0.0
  0
LINE
  5
10F
330
1F
100
AcDbEntity
  8
0
  6
Continuous
 62
     7
370
    25
100
AcDbLine
 10
3947.277198001
 20
3522.0629735795
 30
0.0
 11
3947.277198001
 21
3560.0629611817
 31
0.0
  0
LINE
  5
110
330
1F
100
AcDbEntity
  8
0
  6
Continuous
 62
     7
370
    25
100
AcDbLine
 10
3947.277198001
 20
3560.0629611817
 30
0.0
 11
3947.277198001
 21
3812.0629354325
 31
0.0
  0
LINE
  5
111
330
1F
100
AcDbEntity
  8
0
  6
Continuous
 62
     7
370
    25
100
AcDbLine
 10
3947.277198001
 20
3812.0629354325
 30
0.0
 11
3947.277198001
 21
3850.0629230348
 31
0.0
  0
LINE
  5
112
330
1F
100
AcDbEntity
  8
0
  6
Continuous
 62
     7
370
    25
100
AcDbLine
 10
3947.277198001
 20
3850.0629230348
 30
0.0
 11
3947.277198001
 21
3869.8129220811
 31
0.0
  0
LINE
  5
113
330
1F
100
AcDbEntity
  8
0
  6
Continuous
 62
     7
370
    25
100
AcDbLine
 10
3947.277198001
 20
3892.3129602281
 30
0.0
 11
3947.277198001
 21
3900.8129402009
 31
0.0
  0
LINE
  5
114
330
1F
100
AcDbEntity
  8
0
  6
Continuous
 62
     7
370
    25
100
AcDbLine
 10
3947.277198001
 20
3913.8128324357
 30
0.0
 11
3947.277198001
 21
3952.0630403367
 31
0.0
  0
LINE
  5
115
330
1F
100
AcDbEntity
  8
0
  6
Continuous
 62
     7
370
    25
100
AcDbLine
 10
3947.277198001
 20
3952.0630403367
 30
0.0
 11
3951.2772657118
 21
3952.0630403367
 31
0.0
  0
LINE
  5
116
330
1F
100
AcDbEntity
  8
0
  6
Continuous
 62
     7
370
    25
100
AcDbLine
 10
3979.2772628508
 20
1892.062935507
 30
0.0
 11
3979.2772628508
 21
1903.8129353375
 31
0.0
  0
LINE
  5
117
330
1F
100
AcDbEntity
  8
0
  6
Continuous
 62
     7
370
    25
100
AcDbLine
 10
3979.2772628508
 20
1947.8129348663
 30
0.0
 11
3979.2772628508
 21
3869.8129220811
 31
0.0
  0
LINE
  5
118
330
1F
100
AcDbEntity
  8
0
  6
Continuous
 62
     7
370
    25
100
AcDbLine
 10
3979.2772628508
 20
3913.8128324357
 30
0.0
 11
3979.2772628508
 21
3952.0630403367
 31
0.0
  0
LINE
  5
119
330
1F
100
AcDbEntity
  8
0
  6
Continuous
 62
     7
370
    25
100
AcDbLine
 10
3979.2772628508
 20
1892.062935507
 30
0.0
 11
3975.2771951399
 21
1892.062935507
 31
0.0
  0
LINE
  5
11A
330
1F
100
AcDbEntity
  8
0
  6
Continuous
 62
     7
370
    25
100
AcDbLine
 10
3975.2771951399
 20
3952.0630403367
 30
0.0
 11
3979.2772628508
 21
3952.0630403367
 31
0.0
  0
LINE
  5
11B
330
1F
100
AcDbEntity
  8
0
  6
Continuous
 62
     7
370
    25
100
AcDbLine
 10
4007.2772599898
 20
1892.062935507
 30
0.0
 11
4009.2772342406
 21
1892.062935507
 31
0.0
  0
LINE
  5
11C
330
1F
100
AcDbEntity
  8
0
  6
Continuous
 62
     7
370
    25
100
AcDbLine
 10
4007.2772599898
 20
1892.062935507
 30
0.0
 11
4007.2772599898
 21
1903.8129353375
 31
0.0
  0
LINE
  5
11D
330
1F
100
AcDbEntity
  8
0
  6
Continuous
 62
     7
370
    25
100
AcDbLine
 10
4007.2772599898
 20
1916.8129353729
 30
0.0
 11
4007.2772599898
 21
1925.3129358349
 31
0.0
  0
LINE
  5
11E
330
1F
100
AcDbEntity
  8
0
  6
Continuous
 62
     7
370
    25
100
AcDbLine
 10
4007.2772599898
 20
1947.8129348663
 30
0.0
 11
4007.2772599898
 21
3869.8129220811
 31
0.0
  0
LINE
  5
11F
330
1F
100
AcDbEntity
  8
0
  6
Continuous
 62
     7
370
    25
100
AcDbLine
 10
4007.2772599898
 20
3892.3129602281
 30
0.0
 11
4007.2772599898
 21
3900.8129402009
 31
0.0
  0
LINE
  5
120
330
1F
100
AcDbEntity
  8
0
  6
Continuous
 62
     7
370
    25
100
AcDbLine
 10
4007.2772599898
 20
3913.8128324357
 30
0.0
 11
4007.2772599898
 21
3952.0630403367
 31
0.0
  0
LINE
  5
121
330
1F
100
AcDbEntity
  8
0
  6
Continuous
 62
     7
370
    25
100
AcDbLine
 10
4007.2772599898
 20
3952.0630403367
 30
0.0
 11
4009.2772342406
 21
3952.0630403367
 31
0.0
  0
LINE
  5
122
330
1F
100
AcDbEntity
  8
0
  6
Continuous
 62
     7
370
    25
100
AcDbLine
 10
4009.2772342406
 20
1892.062935507
 30
0.0
 11
4009.2772342406
 21
1903.8129353375
 31
0.0
  0
LINE
  5
123
330
1F
100
AcDbEntity
  8
0
  6
Continuous
 62
     7
370
    25
100
AcDbLine
 10
4009.2772342406
 20
1916.8129353729
 30
0.0
 11
4009.2772342406
 21
1925.3129358349
 31
0.0
  0
LINE
  5
124
330
1F
100
AcDbEntity
  8
0
  6
Continuous
 62
     7
370
    25
100
AcDbLine
 10
4009.2772342406
 20
1947.8129348663
 30
0.0
 11
4009.2772342406
 21
3869.8129220811
 31
0.0
  0
LINE
  5
125
330
1F
100
AcDbEntity
  8
0
  6
Continuous
 62
     7
370
    25
100
AcDbLine
 10
4009.2772342406
 20
3892.3129602281
 30
0.0
 11
4009.2772342406
 21
3900.8129402009
 31
0.0
  0
LINE
  5
126
330
1F
100
AcDbEntity
  8
0
  6
Continuous
 62
     7
370
    25
100
AcDbLine
 10
4009.2772342406
 20
3913.8128324357
 30
0.0
 11
4009.2772342406
 21
3952.0630403367
 31
0.0
  0
LINE
  5
127
330
1F
100
AcDbEntity
  8
0
  6
Continuous
 62
     7
370
    25
100
AcDbLine
 10
4005.277285739
 20
1892.062935507
 30
0.0
 11
4007.2772599898
 21
1892.062935507
 31
0.0
  0
LINE
  5
128
330
1F
100
AcDbEntity
  8
0
  6
Continuous
 62
     7
370
    25
100
AcDbLine
 10
4007.2772599898
 20
3952.0630403367
 30
0.0
 11
4005.277285739
 21
3952.0630403367
 31
0.0
  0
LINE
  5
129
330
1F
100
AcDbEntity
  8
0
  6
Continuous
 62
     7
370
    25
100
AcDbLine
 10
3979.2772628508
 20
1892.062935507
 30
0.0
 11
4005.277285739
 21
1892.062935507
 31
0.0
  0
LINE
  5
12A
330
1F
100
AcDbEntity
  8
0
  6
Continuous
 62
     7
370
    25
100
AcDbLine
 10
3979.2772628508
 20
3952.0630403367
 30
0.0
 11
4005.277285739
 21
3952.0630403367
 31
0.0
  0
LINE
  5
12B
330
1F
100
AcDbEntity
  8
0
  6
Continuous
 62
     7
370
    25
100
AcDbLine
 10
3833.2772351943
 20
3913.8128324357
 30
0.0
 11
3833.2772351943
 21
3911.8129773942
 31
0.0
  0
LINE
  5
12C
330
1F
100
AcDbEntity
  8
0
  6
Continuous
 62
     7
370
    25
100
AcDbLine
 10
3833.2772351943
 20
3913.8128324357
 30
0.0
 11
4843.2773448668
 21
3913.8128324357
 31
0.0
  0
LINE
  5
12D
330
1F
100
AcDbEntity
  8
0
  6
Continuous
 62
     7
370
    25
100
AcDbLine
 10
3833.2772351943
 20
3911.8129773942
 30
0.0
 11
4843.2773448668
 21
3911.8129773942
 31
0.0
  0
LINE
  5
12E
330
1F
100
AcDbEntity
  8
0
  6
Continuous
 62
     7
370
    25
100
AcDbLine
 10
4843.2773448668
 20
3913.8128324357
 30
0.0
 11
4843.2773448668
 21
3911.8129773942
 31
0.0
  0
LINE
  5
12F
330
1F
100
AcDbEntity
  8
0
  6
Continuous
 62
     7
370
    25
100
AcDbLine
 10
3833.2772351943
 20
3883.8129802552
 30
0.0
 11
3833.2772351943
 21
3873.812989792
 31
0.0
  0
LINE
  5
130
330
1F
100
AcDbEntity
  8
0
  6
Continuous
 62
     7
370
    25
100
AcDbLine
 10
4843.2773448668
 20
3883.8129802552
 30
0.0
 11
3833.2772351943
 21
3883.8129802552
 31
0.0
  0
LINE
  5
131
330
1F
100
AcDbEntity
  8
0
  6
Continuous
 62
     7
370
    25
100
AcDbLine
 10
4843.2773448668
 20
3873.812989792
 30
0.0
 11
4843.2773448668
 21
3883.8129802552
 31
0.0
  0
LINE
  5
132
330
1F
100
AcDbEntity
  8
0
  6
Continuous
 62
     7
370
    25
100
AcDbLine
 10
4843.2773448668
 20
3873.812989792
 30
0.0
 11
3833.2772351943
 21
3873.812989792
 31
0.0
  0
LINE
  5
133
330
1F
100
AcDbEntity
  8
0
  6
Continuous
 62
     7
370
    25
100
AcDbLine
 10
3833.2772351943
 20
3869.8129220811
 30
0.0
 11
3833.2772351943
 21
3873.812989792
 31
0.0
  0
LINE
  5
134
330
1F
100
AcDbEntity
  8
0
  6
Continuous
 62
     7
370
    25
100
AcDbLine
 10
4843.2773448668
 20
3873.812989792
 30
0.0
 11
4843.2773448668
 21
3869.8129220811
 31
0.0
  0
LINE
  5
135
330
1F
100
AcDbEntity
  8
0
  6
Continuous
 62
     7
370
    25
100
AcDbLine
 10
4843.2773448668
 20
3869.8129220811
 30
0.0
 11
3833.2772351943
 21
3869.8129220811
 31
0.0
  0
LINE
  5
136
330
1F
100
AcDbEntity
  8
0
  6
Continuous
 62
     7
370
    25
100
AcDbLine
 10
4843.2773448668
 20
3909.8128839341
 30
0.0
 11
4843.2773448668
 21
3911.8129773942
 31
0.0
  0
LINE
  5
137
330
1F
100
AcDbEntity
  8
0
  6
Continuous
 62
     7
370
    25
100
AcDbLine
 10
3833.2772351943
 20
3909.8128839341
 30
0.0
 11
4843.2773448668
 21
3909.8128839341
 31
0.0
  0
LINE
  5
138
330
1F
100
AcDbEntity
  8
0
  6
Continuous
 62
     7
370
    25
100
AcDbLine
 10
3833.2772351943
 20
3911.8129773942
 30
0.0
 11
3833.2772351943
 21
3909.8128839341
 31
0.0
  0
LINE
  5
139
330
1F
100
AcDbEntity
  8
0
  6
Continuous
 62
     7
370
    25
100
AcDbLine
 10
3973.2772208892
 20
3892.3129602281
 30
0.0
 11
3973.2772208892
 21
3900.8129402009
 31
0.0
  0
LINE
  5
13A
330
1F
100
AcDbEntity
  8
0
  6
Continuous
 62
     7
370
    25
100
AcDbLine
 10
3973.2772208892
 20
3900.8129402009
 30
0.0
 11
3923.2772685729
 21
3900.8129402009
 31
0.0
  0
LINE
  5
13B
330
1F
100
AcDbEntity
  8
0
  6
Continuous
 62
     7
370
    25
100
AcDbLine
 10
3923.2772685729
 20
3900.8129402009
 30
0.0
 11
3923.2772685729
 21
3892.3129602281
 31
0.0
  0
LINE
  5
13C
330
1F
100
AcDbEntity
  8
0
  6
Continuous
 62
     7
370
    25
100
AcDbLine
 10
3923.2772685729
 20
3892.3129602281
 30
0.0
 11
3973.2772208892
 21
3892.3129602281
 31
0.0
  0
LINE
  5
13D
330
1F
100
AcDbEntity
  8
0
  6
Continuous
 62
     7
370
    25
100
AcDbLine
 10
4776.2771941863
 20
3892.3129602281
 30
0.0
 11
4836.2771369658
 21
3892.3129602281
 31
0.0
  0
LINE
  5
13E
330
1F
100
AcDbEntity
  8
0
  6
Continuous
 62
     7
370
    25
100
AcDbLine
 10
4836.2771369658
 20
3892.3129602281
 30
0.0
 11
4836.2771369658
 21
3900.8129402009
 31
0.0
  0
LINE
  5
13F
330
1F
100
AcDbEntity
  8
0
  6
Continuous
 62
     7
370
    25
100
AcDbLine
 10
4836.2771369658
 20
3900.8129402009
 30
0.0
 11
4776.2771941863
 21
3900.8129402009
 31
0.0
  0
LINE
  5
140
330
1F
100
AcDbEntity
  8
0
  6
Continuous
 62
     7
370
    25
100
AcDbLine
 10
4776.2771941863
 20
3900.8129402009
 30
0.0
 11
4776.2771941863
 21
3892.3129602281
 31
0.0
  0
LINE
  5
141
330
1F
100
AcDbEntity
  8
0
  6
Continuous
 62
     7
370
    25
100
AcDbLine
 10
4098.2772208892
 20
3892.3129602281
 30
0.0
 11
4098.2772208892
 21
3900.8129402009
 31
0.0
  0
LINE
  5
142
330
1F
100
AcDbEntity
  8
0
  6
Continuous
 62
     7
370
    25
100
AcDbLine
 10
4098.2772208892
 20
3900.8129402009
 30
0.0
 11
4078.2772399626
 21
3900.8129402009
 31
0.0
  0
LINE
  5
143
330
1F
100
AcDbEntity
  8
0
  6
Continuous
 62
     7
370
    25
100
AcDbLine
 10
4078.2772399626
 20
3900.8129402009
 30
0.0
 11
4078.2772399626
 21
3892.3129602281
 31
0.0
  0
LINE
  5
144
330
1F
100
AcDbEntity
  8
0
  6
Continuous
 62
     7
370
    25
100
AcDbLine
 10
4078.2772399626
 20
3892.3129602281
 30
0.0
 11
4098.2772208892
 21
3892.3129602281
 31
0.0
  0
LINE
  5
145
330
1F
100
AcDbEntity
  8
0
  6
Continuous
 62
     7
370
    25
100
AcDbLine
 10
3900.2772666655
 20
3892.3129602281
 30
0.0
 11
3900.2772666655
 21
3900.8129402009
 31
0.0
  0
LINE
  5
146
330
1F
100
AcDbEntity
  8
0
  6
Continuous
 62
     7
370
    25
100
AcDbLine
 10
3900.2772666655
 20
3900.8129402009
 30
0.0
 11
3840.2772046767
 21
3900.8129402009
 31
0.0
  0
LINE
  5
147
330
1F
100
AcDbEntity
  8
0
  6
Continuous
 62
     7
370
    25
100
AcDbLine
 10
3840.2772046767
 20
3900.8129402009
 30
0.0
 11
3840.2772046767
 21
3892.3129602281
 31
0.0
  0
LINE
  5
148
330
1F
100
AcDbEntity
  8
0
  6
Continuous
 62
     7
370
    25
100
AcDbLine
 10
3840.2772046767
 20
3892.3129602281
 30
0.0
 11
3900.2772666655
 21
3892.3129602281
 31
0.0
  0
LINE
  5
149
330
1F
100
AcDbEntity
  8
0
  6
Continuous
 62
     7
370
    25
100
AcDbLine
 10
4015.2772762023
 20
3892.3129602281
 30
0.0
 11
4015.2772762023
 21
3900.8129402009
 31
0.0
  0
LINE
  5
14A
330
1F
100
AcDbEntity
  8
0
  6
Continuous
 62
     7
370
    25
100
AcDbLine
 10
4015.2772762023
 20
3900.8129402009
 30
0.0
 11
3995.2771760665
 21
3900.8129402009
 31
0.0
  0
LINE
  5
14B
330
1F
100
AcDbEntity
  8
0
  6
Continuous
 62
     7
370
    25
100
AcDbLine
 10
3995.2771760665
 20
3900.8129402009
 30
0.0
 11
3995.2771760665
 21
3892.3129602281
 31
0.0
  0
LINE
  5
14C
330
1F
100
AcDbEntity
  8
0
  6
Continuous
 62
     7
370
    25
100
AcDbLine
 10
3995.2771760665
 20
3892.3129602281
 30
0.0
 11
4015.2772762023
 21
3892.3129602281
 31
0.0
  0
LINE
  5
14D
330
1F
100
AcDbEntity
  8
0
  6
Continuous
 62
     7
370
    25
100
AcDbLine
 10
4661.2771846495
 20
3892.3129602281
 30
0.0
 11
4681.2772847853
 21
3892.3129602281
 31
0.0
  0
LINE
  5
14E
330
1F
100
AcDbEntity
  8
0
  6
Continuous
 62
     7
370
    25
100
AcDbLine
 10
4681.2772847853
 20
3892.3129602281
 30
0.0
 11
4681.2772847853
 21
3900.8129402009
 31
0.0
  0
LINE
  5
14F
330
1F
100
AcDbEntity
  8
0
  6
Continuous
 62
     7
370
    25
100
AcDbLine
 10
4681.2772847853
 20
3900.8129402009
 30
0.0
 11
4661.2771846495
 21
3900.8129402009
 31
0.0
  0
LINE
  5
150
330
1F
100
AcDbEntity
  8
0
  6
Continuous
 62
     7
370
    25
100
AcDbLine
 10
4661.2771846495
 20
3900.8129402009
 30
0.0
 11
4661.2771846495
 21
3892.3129602281
 31
0.0
  0
LINE
  5
151
330
1F
100
AcDbEntity
  8
0
  6
Continuous
 62
     7
370
    25
100
AcDbLine
 10
4703.2772399626
 20
3892.3129602281
 30
0.0
 11
4753.2771922789
 21
3892.3129602281
 31
0.0
  0
LINE
  5
152
330
1F
100
AcDbEntity
  8
0
  6
Continuous
 62
     7
370
    25
100
AcDbLine
 10
4753.2771922789
 20
3892.3129602281
 30
0.0
 11
4753.2771922789
 21
3900.8129402009
 31
0.0
  0
LINE
  5
153
330
1F
100
AcDbEntity
  8
0
  6
Continuous
 62
     7
370
    25
100
AcDbLine
 10
4753.2771922789
 20
3900.8129402009
 30
0.0
 11
4703.2772399626
 21
3900.8129402009
 31
0.0
  0
LINE
  5
154
330
1F
100
AcDbEntity
  8
0
  6
Continuous
 62
     7
370
    25
100
AcDbLine
 10
4703.2772399626
 20
3900.8129402009
 30
0.0
 11
4703.2772399626
 21
3892.3129602281
 31
0.0
  0
LINE
  5
155
330
1F
100
AcDbEntity
  8
0
  6
Continuous
 62
     7
370
    25
100
AcDbLine
 10
4578.2772399626
 20
3892.3129602281
 30
0.0
 11
4598.2772208892
 21
3892.3129602281
 31
0.0
  0
LINE
  5
156
330
1F
100
AcDbEntity
  8
0
  6
Continuous
 62
     7
370
    25
100
AcDbLine
 10
4598.2772208892
 20
3892.3129602281
 30
0.0
 11
4598.2772208892
 21
3900.8129402009
 31
0.0
  0
LINE
  5
157
330
1F
100
AcDbEntity
  8
0
  6
Continuous
 62
     7
370
    25
100
AcDbLine
 10
4598.2772208892
 20
3900.8129402009
 30
0.0
 11
4578.2772399626
 21
3900.8129402009
 31
0.0
  0
LINE
  5
158
330
1F
100
AcDbEntity
  8
0
  6
Continuous
 62
     7
370
    25
100
AcDbLine
 10
4578.2772399626
 20
3900.8129402009
 30
0.0
 11
4578.2772399626
 21
3892.3129602281
 31
0.0
  0
LINE
  5
159
330
1F
100
AcDbEntity
  8
0
  6
Continuous
 62
     7
370
    25
100
AcDbLine
 10
4843.2773448668
 20
3883.8129802552
 30
0.0
 11
4843.2773448668
 21
3909.8128839341
 31
0.0
  0
LINE
  5
15A
330
1F
100
AcDbEntity
  8
0
  6
Continuous
 62
     7
370
    25
100
AcDbLine
 10
3833.2772351943
 20
3909.8128839341
 30
0.0
 11
3833.2772351943
 21
3883.8129802552
 31
0.0
  0
LINE
  5
15B
330
1F
100
AcDbEntity
  8
0
  6
Continuous
 62
     7
370
    25
100
AcDbLine
 10
4843.2773448668
 20
1903.8129353375
 30
0.0
 11
4843.2773448668
 21
1905.8129354325
 31
0.0
  0
LINE
  5
15C
330
1F
100
AcDbEntity
  8
0
  6
Continuous
 62
     7
370
    25
100
AcDbLine
 10
4843.2773448668
 20
1905.8129354325
 30
0.0
 11
3833.2772351943
 21
1905.8129354325
 31
0.0
  0
LINE
  5
15D
330
1F
100
AcDbEntity
  8
0
  6
Continuous
 62
     7
370
    25
100
AcDbLine
 10
4843.2773448668
 20
1903.8129353375
 30
0.0
 11
3833.2772351943
 21
1903.8129353375
 31
0.0
  0
LINE
  5
15E
330
1F
100
AcDbEntity
  8
0
  6
Continuous
 62
     7
370
    25
100
AcDbLine
 10
3833.2772351943
 20
1903.8129353375
 30
0.0
 11
3833.2772351943
 21
1905.8129354325
 31
0.0
  0
LINE
  5
15F
330
1F
100
AcDbEntity
  8
0
  6
Continuous
 62
     7
370
    25
100
AcDbLine
 10
4843.2773448668
 20
1947.8129348663
 30
0.0
 11
4843.2773448668
 21
1943.8129342106
 31
0.0
  0
LINE
  5
160
330
1F
100
AcDbEntity
  8
0
  6
Continuous
 62
     7
370
    25
100
AcDbLine
 10
3833.2772351943
 20
1943.8129342106
 30
0.0
 11
4843.2773448668
 21
1943.8129342106
 31
0.0
  0
LINE
  5
161
330
1F
100
AcDbEntity
  8
0
  6
Continuous
 62
     7
370
    25
100
AcDbLine
 10
3833.2772351943
 20
1943.8129342106
 30
0.0
 11
3833.2772351943
 21
1947.8129348663
 31
0.0
  0
LINE
  5
162
330
1F
100
AcDbEntity
  8
0
  6
Continuous
 62
     7
370
    25
100
AcDbLine
 10
3833.2772351943
 20
1947.8129348663
 30
0.0
 11
4843.2773448668
 21
1947.8129348663
 31
0.0
  0
LINE
  5
163
330
1F
100
AcDbEntity
  8
0
  6
Continuous
 62
     7
370
    25
100
AcDbLine
 10
3833.2772351943
 20
1933.8129362968
 30
0.0
 11
4843.2773448668
 21
1933.8129362968
 31
0.0
  0
LINE
  5
164
330
1F
100
AcDbEntity
  8
0
  6
Continuous
 62
     7
370
    25
100
AcDbLine
 10
3833.2772351943
 20
1943.8129342106
 30
0.0
 11
3833.2772351943
 21
1933.8129362968
 31
0.0
  0
LINE
  5
165
330
1F
100
AcDbEntity
  8
0
  6
Continuous
 62
     7
370
    25
100
AcDbLine
 10
4843.2773448668
 20
1933.8129362968
 30
0.0
 11
4843.2773448668
 21
1943.8129342106
 31
0.0
  0
LINE
  5
166
330
1F
100
AcDbEntity
  8
0
  6
Continuous
 62
     7
370
    25
100
AcDbLine
 10
3833.2772351943
 20
1907.8129355275
 30
0.0
 11
3833.2772351943
 21
1905.8129354325
 31
0.0
  0
LINE
  5
167
330
1F
100
AcDbEntity
  8
0
  6
Continuous
 62
     7
370
    25
100
AcDbLine
 10
4843.2773448668
 20
1907.8129355275
 30
0.0
 11
3833.2772351943
 21
1907.8129355275
 31
0.0
  0
LINE
  5
168
330
1F
100
AcDbEntity
  8
0
  6
Continuous
 62
     7
370
    25
100
AcDbLine
 10
4843.2773448668
 20
1905.8129354325
 30
0.0
 11
4843.2773448668
 21
1907.8129355275
 31
0.0
  0
LINE
  5
169
330
1F
100
AcDbEntity
  8
0
  6
Continuous
 62
     7
370
    25
100
AcDbLine
 10
4703.2772399626
 20
1925.3129358349
 30
0.0
 11
4703.2772399626
 21
1916.8129353729
 31
0.0
  0
LINE
  5
16A
330
1F
100
AcDbEntity
  8
0
  6
Continuous
 62
     7
370
    25
100
AcDbLine
 10
4703.2772399626
 20
1916.8129353729
 30
0.0
 11
4753.2771922789
 21
1916.8129353729
 31
0.0
  0
LINE
  5
16B
330
1F
100
AcDbEntity
  8
0
  6
Continuous
 62
     7
370
    25
100
AcDbLine
 10
4753.2771922789
 20
1916.8129353729
 30
0.0
 11
4753.2771922789
 21
1925.3129358349
 31
0.0
  0
LINE
  5
16C
330
1F
100
AcDbEntity
  8
0
  6
Continuous
 62
     7
370
    25
100
AcDbLine
 10
4753.2771922789
 20
1925.3129358349
 30
0.0
 11
4703.2772399626
 21
1925.3129358349
 31
0.0
  0
LINE
  5
16D
330
1F
100
AcDbEntity
  8
0
  6
Continuous
 62
     7
370
    25
100
AcDbLine
 10
3900.2772666655
 20
1925.3129358349
 30
0.0
 11
3840.2772046767
 21
1925.3129358349
 31
0.0
  0
LINE
  5
16E
330
1F
100
AcDbEntity
  8
0
  6
Continuous
 62
     7
370
    25
100
AcDbLine
 10
3900.2772666655
 20
1916.8129353729
 30
0.0
 11
3900.2772666655
 21
1925.3129358349
 31
0.0
  0
LINE
  5
16F
330
1F
100
AcDbEntity
  8
0
  6
Continuous
 62
     7
370
    25
100
AcDbLine
 10
4578.2772399626
 20
1925.3129358349
 30
0.0
 11
4578.2772399626
 21
1916.8129353729
 31
0.0
  0
LINE
  5
170
330
1F
100
AcDbEntity
  8
0
  6
Continuous
 62
     7
370
    25
100
AcDbLine
 10
4578.2772399626
 20
1916.8129353729
 30
0.0
 11
4598.2772208892
 21
1916.8129353729
 31
0.0
  0
LINE
  5
171
330
1F
100
AcDbEntity
  8
0
  6
Continuous
 62
     7
370
    25
100
AcDbLine
 10
4598.2772208892
 20
1916.8129353729
 30
0.0
 11
4598.2772208892
 21
1925.3129358349
 31
0.0
  0
LINE
  5
172
330
1F
100
AcDbEntity
  8
0
  6
Continuous
 62
     7
370
    25
100
AcDbLine
 10
4598.2772208892
 20
1925.3129358349
 30
0.0
 11
4578.2772399626
 21
1925.3129358349
 31
0.0
  0
LINE
  5
173
330
1F
100
AcDbEntity
  8
0
  6
Continuous
 62
     7
370
    25
100
AcDbLine
 10
4776.2771941863
 20
1925.3129358349
 30
0.0
 11
4776.2771941863
 21
1916.8129353729
 31
0.0
  0
LINE
  5
174
330
1F
100
AcDbEntity
  8
0
  6
Continuous
 62
     7
370
    25
100
AcDbLine
 10
4836.2771369658
 20
1925.3129358349
 30
0.0
 11
4776.2771941863
 21
1925.3129358349
 31
0.0
  0
LINE
  5
175
330
1F
100
AcDbEntity
  8
0
  6
Continuous
 62
     7
370
    25
100
AcDbLine
 10
4661.2771846495
 20
1916.8129353729
 30
0.0
 11
4681.2772847853
 21
1916.8129353729
 31
0.0
  0
LINE
  5
176
330
1F
100
AcDbEntity
  8
0
  6
Continuous
 62
     7
370
    25
100
AcDbLine
 10
4015.2772762023
 20
1925.3129358349
 30
0.0
 11
3995.2771760665
 21
1925.3129358349
 31
0.0
  0
LINE
  5
177
330
1F
100
AcDbEntity
  8
0
  6
Continuous
 62
     7
370
    25
100
AcDbLine
 10
3995.2771760665
 20
1925.3129358349
 30
0.0
 11
3995.2771760665
 21
1916.8129353729
 31
0.0
  0
LINE
  5
178
330
1F
100
AcDbEntity
  8
0
  6
Continuous
 62
     7
370
    25
100
AcDbLine
 10
3995.2771760665
 20
1916.8129353729
 30
0.0
 11
4015.2772762023
 21
1916.8129353729
 31
0.0
  0
LINE
  5
179
330
1F
100
AcDbEntity
  8
0
  6
Continuous
 62
     7
370
    25
100
AcDbLine
 10
4015.2772762023
 20
1916.8129353729
 30
0.0
 11
4015.2772762023
 21
1925.3129358349
 31
0.0
  0
LINE
  5
17A
330
1F
100
AcDbEntity
  8
0
  6
Continuous
 62
     7
370
    25
100
AcDbLine
 10
3973.2772208892
 20
1925.3129358349
 30
0.0
 11
3923.2772685729
 21
1925.3129358349
 31
0.0
  0
LINE
  5
17B
330
1F
100
AcDbEntity
  8
0
  6
Continuous
 62
     7
370
    25
100
AcDbLine
 10
3923.2772685729
 20
1925.3129358349
 30
0.0
 11
3923.2772685729
 21
1916.8129353729
 31
0.0
  0
LINE
  5
17C
330
1F
100
AcDbEntity
  8
0
  6
Continuous
 62
     7
370
    25
100
AcDbLine
 10
3923.2772685729
 20
1916.8129353729
 30
0.0
 11
3973.2772208892
 21
1916.8129353729
 31
0.0
  0
LINE
  5
17D
330
1F
100
AcDbEntity
  8
0
  6
Continuous
 62
     7
370
    25
100
AcDbLine
 10
3973.2772208892
 20
1916.8129353729
 30
0.0
 11
3973.2772208892
 21
1925.3129358349
 31
0.0
  0
LINE
  5
17E
330
1F
100
AcDbEntity
  8
0
  6
Continuous
 62
     7
370
    25
100
AcDbLine
 10
4098.2772208892
 20
1925.3129358349
 30
0.0
 11
4078.2772399626
 21
1925.3129358349
 31
0.0
  0
LINE
  5
17F
330
1F
100
AcDbEntity
  8
0
  6
Continuous
 62
     7
370
    25
100
AcDbLine
 10
4078.2772399626
 20
1925.3129358349
 30
0.0
 11
4078.2772399626
 21
1916.8129353729
 31
0.0
  0
LINE
  5
180
330
1F
100
AcDbEntity
  8
0
  6
Continuous
 62
     7
370
    25
100
AcDbLine
 10
4078.2772399626
 20
1916.8129353729
 30
0.0
 11
4098.2772208892
 21
1916.8129353729
 31
0.0
  0
LINE
  5
181
330
1F
100
AcDbEntity
  8
0
  6
Continuous
 62
     7
370
    25
100
AcDbLine
 10
4098.2772208892
 20
1916.8129353729
 30
0.0
 11
4098.2772208892
 21
1925.3129358349
 31
0.0
  0
LINE
  5
182
330
1F
100
AcDbEntity
  8
0
  6
Continuous
 62
     7
370
    25
100
AcDbLine
 10
3833.2772351943
 20
1933.8129362968
 30
0.0
 11
3833.2772351943
 21
1907.8129355275
 31
0.0
  0
LINE
  5
183
330
1F
100
AcDbEntity
  8
0
  6
Continuous
 62
     7
370
    25
100
AcDbLine
 10
4843.2773448668
 20
1907.8129355275
 30
0.0
 11
4843.2773448668
 21
1933.8129362968
 31
0.0
  0
LINE
  5
184
330
1F
100
AcDbEntity
  8
0
  6
Continuous
 62
     7
370
    25
100
AcDbLine
 10
3840.2772046767
 20
1916.8129353729
 30
0.0
 11
3900.2772666655
 21
1916.8129353729
 31
0.0
  0
LINE
  5
185
330
1F
100
AcDbEntity
  8
0
  6
Continuous
 62
     7
370
    25
100
AcDbLine
 10
4681.2772847853
 20
1925.3129358349
 30
0.0
 11
4661.2771846495
 21
1925.3129358349
 31
0.0
  0
LINE
  5
186
330
1F
100
AcDbEntity
  8
0
  6
Continuous
 62
     7
370
    25
100
AcDbLine
 10
4681.2772847853
 20
1916.8129353729
 30
0.0
 11
4681.2772847853
 21
1925.3129358349
 31
0.0
  0
LINE
  5
187
330
1F
100
AcDbEntity
  8
0
  6
Continuous
 62
     7
370
    25
100
AcDbLine
 10
4776.2771941863
 20
1916.8129353729
 30
0.0
 11
4836.2771369658
 21
1916.8129353729
 31
0.0
  0
LINE
  5
188
330
1F
100
AcDbEntity
  8
0
  6
Continuous
 62
     7
370
    25
100
AcDbLine
 10
4661.2771846495
 20
1925.3129358349
 30
0.0
 11
4661.2771846495
 21
1916.8129353729
 31
0.0
  0
LINE
  5
189
330
1F
100
AcDbEntity
  8
0
  6
Continuous
 62
     7
370
    25
100
AcDbLine
 10
4836.2771369658
 20
1916.8129353729
 30
0.0
 11
4836.2771369658
 21
1925.3129358349
 31
0.0
  0
LINE
  5
18A
330
1F
100
AcDbEntity
  8
0
  6
Continuous
 62
     7
370
    25
100
AcDbLine
 10
3840.2772046767
 20
1925.3129358349
 30
0.0
 11
3840.2772046767
 21
1916.8129353729
 31
0.0
  0
LINE
  5
18B
330
1F
100
AcDbEntity
  8
0
  6
Continuous
 62
     7
370
    25
100
AcDbLine
 10
3475.2772547446
 20
1892.062935507
 30
0.0
 11
3451.2772061072
 21
1892.062935507
 31
0.0
  0
LINE
  5
18C
330
1F
100
AcDbEntity
  8
0
  6
Continuous
 62
     7
370
    25
100
AcDbLine
 10
3475.2772547446
 20
3952.0630403367
 30
0.0
 11
3451.2772061072
 21
3952.0630403367
 31
0.0
  0
ARC
  5
18D
330
1F
100
AcDbEntity
  8
0
  6
Continuous
 62
     7
370
    25
100
AcDbCircle
 10
3463.2772304259
 20
2382.0629354326
 30
0.0
 40
4.999999999999091
100
AcDbArc
 50
0.0
 51
180.0
  0
LINE
  5
18E
330
1F
100
AcDbEntity
  8
0
  6
Continuous
 62
     7
370
    25
100
AcDbLine
 10
3458.2772351943
 20
2382.06292828
 30
0.0
 11
3458.2772351943
 21
2372.0629378167
 31
0.0
  0
ARC
  5
18F
330
1F
100
AcDbEntity
  8
0
  6
Continuous
 62
     7
370
    25
100
AcDbCircle
 10
3463.2772304259
 20
2372.0629354326
 30
0.0
 40
5.0
100
AcDbArc
 50
180.0
 51
0.0
  0
LINE
  5
190
330
1F
100
AcDbEntity
  8
0
  6
Continuous
 62
     7
370
    25
100
AcDbLine
 10
3468.2772256575
 20
2372.0629378167
 30
0.0
 11
3468.2772256575
 21
2382.06292828
 31
0.0
  0
ARC
  5
191
330
1F
100
AcDbEntity
  8
0
  6
Continuous
 62
     7
370
    25
100
AcDbCircle
 10
3463.2772304259
 20
3816.0629354325
 30
0.0
 40
5.000000000000455
100
AcDbArc
 50
180.0000000001
 51
0.0000000001
  0
LINE
  5
192
330
1F
100
AcDbEntity
  8
0
  6
Continuous
 62
     7
370
    25
100
AcDbLine
 10
3468.2772256575
 20
3816.0628839341
 30
0.0
 11
3468.2772256575
 21
3846.0629745332
 31
0.0
  0
ARC
  5
193
330
1F
100
AcDbEntity
  8
0
  6
Continuous
 62
     7
370
    25
100
AcDbCircle
 10
3463.2772304259
 20
3846.0629354325
 30
0.0
 40
5.000000000000455
100
AcDbArc
 50
0.0
 51
179.9999999998
  0
LINE
  5
194
330
1F
100
AcDbEntity
  8
0
  6
Continuous
 62
     7
370
    25
100
AcDbLine
 10
3458.2772351943
 20
3846.0629745332
 30
0.0
 11
3458.2772351943
 21
3816.0628839341
 31
0.0
  0
ARC
  5
195
330
1F
100
AcDbEntity
  8
0
  6
Continuous
 62
     7
370
    25
100
AcDbCircle
 10
3463.2772304259
 20
3333.0629354325
 30
0.0
 40
4.999999999999545
100
AcDbArc
 50
180.0
 51
0.0000000001
  0
LINE
  5
196
330
1F
100
AcDbEntity
  8
0
  6
Continuous
 62
     7
370
    25
100
AcDbLine
 10
3468.2772256575
 20
3333.0629630891
 30
0.0
 11
3468.2772256575
 21
3363.0629344788
 31
0.0
  0
ARC
  5
197
330
1F
100
AcDbEntity
  8
0
  6
Continuous
 62
     7
370
    25
100
AcDbCircle
 10
3463.2772304259
 20
3363.0629354325
 30
0.0
 40
5.000000000000455
100
AcDbArc
 50
0.0000000001
 51
180.0
  0
LINE
  5
198
330
1F
100
AcDbEntity
  8
0
  6
Continuous
 62
     7
370
    25
100
AcDbLine
 10
3458.2772351943
 20
3363.0629344788
 30
0.0
 11
3458.2772351943
 21
3333.0629630891
 31
0.0
  0
ARC
  5
199
330
1F
100
AcDbEntity
  8
0
  6
Continuous
 62
     7
370
    25
100
AcDbCircle
 10
3463.2772304259
 20
2511.0629354326
 30
0.0
 40
5.000000000000455
100
AcDbArc
 50
0.0
 51
179.9999999998
  0
LINE
  5
19A
330
1F
100
AcDbEntity
  8
0
  6
Continuous
 62
     7
370
    25
100
AcDbLine
 10
3458.2772351943
 20
2511.0629363862
 30
0.0
 11
3458.2772351943
 21
2481.0629649964
 31
0.0
  0
ARC
  5
19B
330
1F
100
AcDbEntity
  8
0
  6
Continuous
 62
     7
370
    25
100
AcDbCircle
 10
3463.2772304259
 20
2481.0629354326
 30
0.0
 40
5.000000000000455
100
AcDbArc
 50
180.0
 51
0.0000000001
  0
LINE
  5
19C
330
1F
100
AcDbEntity
  8
0
  6
Continuous
 62
     7
370
    25
100
AcDbLine
 10
3468.2772256575
 20
2481.0629649964
 30
0.0
 11
3468.2772256575
 21
2511.0629363862
 31
0.0
  0
ARC
  5
19D
330
1F
100
AcDbEntity
  8
0
  6
Continuous
 62
     7
370
    25
100
AcDbCircle
 10
3463.2772304259
 20
2308.0629354326
 30
0.0
 40
4.999999999999545
100
AcDbArc
 50
0.0
 51
180.0
  0
LINE
  5
19E
330
1F
100
AcDbEntity
  8
0
  6
Continuous
 62
     7
370
    25
100
AcDbLine
 10
3458.2772351943
 20
2308.0629273263
 30
0.0
 11
3458.2772351943
 21
2298.062936863
 31
0.0
  0
ARC
  5
19F
330
1F
100
AcDbEntity
  8
0
  6
Continuous
 62
     7
370
    25
100
AcDbCircle
 10
3463.2772304259
 20
2298.0629354326
 30
0.0
 40
5.000000000000455
100
AcDbArc
 50
180.0
 51
0.0
  0
LINE
  5
1A0
330
1F
100
AcDbEntity
  8
0
  6
Continuous
 62
     7
370
    25
100
AcDbLine
 10
3468.2772256575
 20
2298.062936863
 30
0.0
 11
3468.2772256575
 21
2308.0629273263
 31
0.0
  0
ARC
  5
1A1
330
1F
100
AcDbEntity
  8
0
  6
Continuous
 62
     7
370
    25
100
AcDbCircle
 10
3463.2772304259
 20
1957.0629354326
 30
0.0
 40
4.999999999999545
100
AcDbArc
 50
360.0
 51
180.0
  0
LINE
  5
1A2
330
1F
100
AcDbEntity
  8
0
  6
Continuous
 62
     7
370
    25
100
AcDbLine
 10
3458.2772351943
 20
1957.0629349855
 30
0.0
 11
3458.2772351943
 21
1947.8129348663
 31
0.0
  0
LINE
  5
1A3
330
1F
100
AcDbEntity
  8
0
  6
Continuous
 62
     7
370
    25
100
AcDbLine
 10
3458.2772351943
 20
1925.3129358349
 30
0.0
 11
3458.2772351943
 21
1921.0629356039
 31
0.0
  0
ARC
  5
1A4
330
1F
100
AcDbEntity
  8
0
  6
Continuous
 62
     7
370
    25
100
AcDbCircle
 10
3463.2772304259
 20
1921.0629354326
 30
0.0
 40
5.000000000000909
100
AcDbArc
 50
180.0
 51
238.2116693839
  0
ARC
  5
1A5
330
1F
100
AcDbEntity
  8
0
  6
Continuous
 62
     7
370
    25
100
AcDbCircle
 10
3463.2772304259
 20
1921.0629354326
 30
0.0
 40
4.999999999998876
100
AcDbArc
 50
301.7883306161
 51
0.0
  0
LINE
  5
1A6
330
1F
100
AcDbEntity
  8
0
  6
Continuous
 62
     7
370
    25
100
AcDbLine
 10
3468.2772256575
 20
1921.0629356039
 30
0.0
 11
3468.2772256575
 21
1925.3129358349
 31
0.0
  0
LINE
  5
1A7
330
1F
100
AcDbEntity
  8
0
  6
Continuous
 62
     7
370
    25
100
AcDbLine
 10
3468.2772256575
 20
1947.8129348663
 30
0.0
 11
3468.2772256575
 21
1957.0629349855
 31
0.0
  0
ARC
  5
1A8
330
1F
100
AcDbEntity
  8
0
  6
Continuous
 62
     7
370
    25
100
AcDbCircle
 10
3463.2772304259
 20
3462.0629354325
 30
0.0
 40
4.999999999999545
100
AcDbArc
 50
180.0
 51
0.0
  0
LINE
  5
1A9
330
1F
100
AcDbEntity
  8
0
  6
Continuous
 62
     7
370
    25
100
AcDbLine
 10
3468.2772256575
 20
3462.0629115907
 30
0.0
 11
3468.2772256575
 21
3472.0629020539
 31
0.0
  0
ARC
  5
1AA
330
1F
100
AcDbEntity
  8
0
  6
Continuous
 62
     7
370
    25
100
AcDbCircle
 10
3463.2772304259
 20
3472.0629354325
 30
0.0
 40
5.0
100
AcDbArc
 50
0.0
 51
180.0
  0
LINE
  5
1AB
330
1F
100
AcDbEntity
  8
0
  6
Continuous
 62
     7
370
    25
100
AcDbLine
 10
3458.2772351943
 20
3472.0629020539
 30
0.0
 11
3458.2772351943
 21
3462.0629115907
 31
0.0
  0
ARC
  5
1AC
330
1F
100
AcDbEntity
  8
0
  6
Continuous
 62
     7
370
    25
100
AcDbCircle
 10
3463.2772304259
 20
3536.0629354325
 30
0.0
 40
4.999999999999545
100
AcDbArc
 50
180.0
 51
0.0
  0
LINE
  5
1AD
330
1F
100
AcDbEntity
  8
0
  6
Continuous
 62
     7
370
    25
100
AcDbLine
 10
3468.2772256575
 20
3536.0629125443
 30
0.0
 11
3468.2772256575
 21
3546.0629030076
 31
0.0
  0
ARC
  5
1AE
330
1F
100
AcDbEntity
  8
0
  6
Continuous
 62
     7
370
    25
100
AcDbCircle
 10
3463.2772304259
 20
3546.0629354325
 30
0.0
 40
5.000000000000909
100
AcDbArc
 50
0.0000000001
 51
179.9999999999
  0
LINE
  5
1AF
330
1F
100
AcDbEntity
  8
0
  6
Continuous
 62
     7
370
    25
100
AcDbLine
 10
3458.2772351943
 20
3546.0629030076
 30
0.0
 11
3458.2772351943
 21
3536.0629125443
 31
0.0
  0
ARC
  5
1B0
330
1F
100
AcDbEntity
  8
0
  6
Continuous
 62
     7
370
    25
100
AcDbCircle
 10
3463.2772304259
 20
2028.0629354326
 30
0.0
 40
5.000000000001819
100
AcDbArc
 50
0.0000000001
 51
180.0
  0
LINE
  5
1B1
330
1F
100
AcDbEntity
  8
0
  6
Continuous
 62
     7
370
    25
100
AcDbLine
 10
3458.2772351943
 20
2028.0629335848
 30
0.0
 11
3458.2772351943
 21
1998.0629323927
 31
0.0
  0
ARC
  5
1B2
330
1F
100
AcDbEntity
  8
0
  6
Continuous
 62
     7
370
    25
100
AcDbCircle
 10
3463.2772304259
 20
1998.0629354326
 30
0.0
 40
5.000000000000909
100
AcDbArc
 50
180.0
 51
0.0000000001
  0
LINE
  5
1B3
330
1F
100
AcDbEntity
  8
0
  6
Continuous
 62
     7
370
    25
100
AcDbLine
 10
3468.2772256575
 20
1998.0629323927
 30
0.0
 11
3468.2772256575
 21
2028.0629335848
 31
0.0
  0
LINE
  5
1B4
330
1F
100
AcDbEntity
  8
0
  6
Continuous
 62
     7
370
    25
100
AcDbLine
 10
3468.2772256575
 20
3892.3129602281
 30
0.0
 11
3468.2772256575
 21
3900.8129402009
 31
0.0
  0
LINE
  5
1B5
330
1F
100
AcDbEntity
  8
0
  6
Continuous
 62
     7
370
    25
100
AcDbLine
 10
3468.2772256575
 20
3913.8128324357
 30
0.0
 11
3468.2772256575
 21
3923.0629964677
 31
0.0
  0
ARC
  5
1B6
330
1F
100
AcDbEntity
  8
0
  6
Continuous
 62
     7
370
    25
100
AcDbCircle
 10
3463.2772304259
 20
3923.0629354325
 30
0.0
 40
4.999999999999545
100
AcDbArc
 50
0.0
 51
180.0
  0
LINE
  5
1B7
330
1F
100
AcDbEntity
  8
0
  6
Continuous
 62
     7
370
    25
100
AcDbLine
 10
3458.2772351943
 20
3923.0629964677
 30
0.0
 11
3458.2772351943
 21
3913.8128324357
 31
0.0
  0
LINE
  5
1B8
330
1F
100
AcDbEntity
  8
0
  6
Continuous
 62
     7
370
    25
100
AcDbLine
 10
3458.2772351943
 20
3900.8129402009
 30
0.0
 11
3458.2772351943
 21
3892.3129602281
 31
0.0
  0
LINE
  5
1B9
330
1F
100
AcDbEntity
  8
0
  6
Continuous
 62
     7
370
    25
100
AcDbLine
 10
3479.2772032462
 20
1892.062935507
 30
0.0
 11
3479.2772032462
 21
1903.8129353375
 31
0.0
  0
LINE
  5
1BA
330
1F
100
AcDbEntity
  8
0
  6
Continuous
 62
     7
370
    25
100
AcDbLine
 10
3479.2772032462
 20
1947.8129348663
 30
0.0
 11
3479.2772032462
 21
3869.8129220811
 31
0.0
  0
LINE
  5
1BB
330
1F
100
AcDbEntity
  8
0
  6
Continuous
 62
     7
370
    25
100
AcDbLine
 10
3479.2772032462
 20
3913.8128324357
 30
0.0
 11
3479.2772032462
 21
3952.0630403367
 31
0.0
  0
LINE
  5
1BC
330
1F
100
AcDbEntity
  8
0
  6
Continuous
 62
     7
370
    25
100
AcDbLine
 10
3479.2772032462
 20
1892.062935507
 30
0.0
 11
3475.2772547446
 21
1892.062935507
 31
0.0
  0
LINE
  5
1BD
330
1F
100
AcDbEntity
  8
0
  6
Continuous
 62
     7
370
    25
100
AcDbLine
 10
3475.2772547446
 20
3952.0630403367
 30
0.0
 11
3479.2772032462
 21
3952.0630403367
 31
0.0
  0
LINE
  5
1BE
330
1F
100
AcDbEntity
  8
0
  6
Continuous
 62
     7
370
    25
100
AcDbLine
 10
3451.2772061072
 20
1892.062935507
 30
0.0
 11
3447.2772576056
 21
1892.062935507
 31
0.0
  0
LINE
  5
1BF
330
1F
100
AcDbEntity
  8
0
  6
Continuous
 62
     7
370
    25
100
AcDbLine
 10
3447.2772576056
 20
1892.062935507
 30
0.0
 11
3447.2772576056
 21
1903.8129353375
 31
0.0
  0
LINE
  5
1C0
330
1F
100
AcDbEntity
  8
0
  6
Continuous
 62
     7
370
    25
100
AcDbLine
 10
3447.2772576056
 20
1916.8129353729
 30
0.0
 11
3447.2772576056
 21
1925.3129358349
 31
0.0
  0
LINE
  5
1C1
330
1F
100
AcDbEntity
  8
0
  6
Continuous
 62
     7
370
    25
100
AcDbLine
 10
3447.2772576056
 20
1947.8129348663
 30
0.0
 11
3447.2772576056
 21
1994.062931737
 31
0.0
  0
LINE
  5
1C2
330
1F
100
AcDbEntity
  8
0
  6
Continuous
 62
     7
370
    25
100
AcDbLine
 10
3447.2772576056
 20
1994.062931737
 30
0.0
 11
3447.2772576056
 21
2032.0629342404
 31
0.0
  0
LINE
  5
1C3
330
1F
100
AcDbEntity
  8
0
  6
Continuous
 62
     7
370
    25
100
AcDbLine
 10
3447.2772576056
 20
2032.0629342404
 30
0.0
 11
3447.2772576056
 21
2284.0629382935
 31
0.0
  0
LINE
  5
1C4
330
1F
100
AcDbEntity
  8
0
  6
Continuous
 62
     7
370
    25
100
AcDbLine
 10
3447.2772576056
 20
2284.0629382935
 30
0.0
 11
3447.2772576056
 21
2322.0629258958
 31
0.0
  0
LINE
  5
1C5
330
1F
100
AcDbEntity
  8
0
  6
Continuous
 62
     7
370
    25
100
AcDbLine
 10
3447.2772576056
 20
2322.0629258958
 30
0.0
 11
3447.2772576056
 21
2358.0629392472
 31
0.0
  0
LINE
  5
1C6
330
1F
100
AcDbEntity
  8
0
  6
Continuous
 62
     7
370
    25
100
AcDbLine
 10
3447.2772576056
 20
2358.0629392472
 30
0.0
 11
3447.2772576056
 21
2396.0629268495
 31
0.0
  0
LINE
  5
1C7
330
1F
100
AcDbEntity
  8
0
  6
Continuous
 62
     7
370
    25
100
AcDbLine
 10
3447.2772576056
 20
2396.0629268495
 30
0.0
 11
3447.2772576056
 21
2477.0629568902
 31
0.0
  0
LINE
  5
1C8
330
1F
100
AcDbEntity
  8
0
  6
Continuous
 62
     7
370
    25
100
AcDbLine
 10
3447.2772576056
 20
2477.0629568902
 30
0.0
 11
3447.2772576056
 21
2515.0629444924
 31
0.0
  0
LINE
  5
1C9
330
1F
100
AcDbEntity
  8
0
  6
Continuous
 62
     7
370
    25
100
AcDbLine
 10
3447.2772576056
 20
2515.0629444924
 30
0.0
 11
3447.2772576056
 21
3329.0628953782
 31
0.0
  0
LINE
  5
1CA
330
1F
100
AcDbEntity
  8
0
  6
Continuous
 62
     7
370
    25
100
AcDbLine
 10
3447.2772576056
 20
3329.0628953782
 30
0.0
 11
3447.2772576056
 21
3367.0628829804
 31
0.0
  0
LINE
  5
1CB
330
1F
100
AcDbEntity
  8
0
  6
Continuous
 62
     7
370
    25
100
AcDbLine
 10
3447.2772576056
 20
3367.0628829804
 30
0.0
 11
3447.2772576056
 21
3448.0629726258
 31
0.0
  0
LINE
  5
1CC
330
1F
100
AcDbEntity
  8
0
  6
Continuous
 62
     7
370
    25
100
AcDbLine
 10
3447.2772576056
 20
3448.0629726258
 30
0.0
 11
3447.2772576056
 21
3486.0629602281
 31
0.0
  0
LINE
  5
1CD
330
1F
100
AcDbEntity
  8
0
  6
Continuous
 62
     7
370
    25
100
AcDbLine
 10
3447.2772576056
 20
3486.0629602281
 30
0.0
 11
3447.2772576056
 21
3522.0629735795
 31
0.0
  0
LINE
  5
1CE
330
1F
100
AcDbEntity
  8
0
  6
Continuous
 62
     7
370
    25
100
AcDbLine
 10
3447.2772576056
 20
3522.0629735795
 30
0.0
 11
3447.2772576056
 21
3560.0629611817
 31
0.0
  0
LINE
  5
1CF
330
1F
100
AcDbEntity
  8
0
  6
Continuous
 62
     7
370
    25
100
AcDbLine
 10
3447.2772576056
 20
3560.0629611817
 30
0.0
 11
3447.2772576056
 21
3812.0629354325
 31
0.0
  0
LINE
  5
1D0
330
1F
100
AcDbEntity
  8
0
  6
Continuous
 62
     7
370
    25
100
AcDbLine
 10
3447.2772576056
 20
3812.0629354325
 30
0.0
 11
3447.2772576056
 21
3850.0629230348
 31
0.0
  0
LINE
  5
1D1
330
1F
100
AcDbEntity
  8
0
  6
Continuous
 62
     7
370
    25
100
AcDbLine
 10
3447.2772576056
 20
3850.0629230348
 30
0.0
 11
3447.2772576056
 21
3869.8129220811
 31
0.0
  0
LINE
  5
1D2
330
1F
100
AcDbEntity
  8
0
  6
Continuous
 62
     7
370
    25
100
AcDbLine
 10
3447.2772576056
 20
3892.3129602281
 30
0.0
 11
3447.2772576056
 21
3900.8129402009
 31
0.0
  0
LINE
  5
1D3
330
1F
100
AcDbEntity
  8
0
  6
Continuous
 62
     7
370
    25
100
AcDbLine
 10
3447.2772576056
 20
3913.8128324357
 30
0.0
 11
3447.2772576056
 21
3952.0630403367
 31
0.0
  0
LINE
  5
1D4
330
1F
100
AcDbEntity
  8
0
  6
Continuous
 62
     7
370
    25
100
AcDbLine
 10
3447.2772576056
 20
3952.0630403367
 30
0.0
 11
3451.2772061072
 21
3952.0630403367
 31
0.0
  0
LINE
  5
1D5
330
1F
100
AcDbEntity
  8
0
  6
Continuous
 62
     7
370
    25
100
AcDbLine
 10
3507.2772599898
 20
1892.062935507
 30
0.0
 11
3509.2772342406
 21
1892.062935507
 31
0.0
  0
LINE
  5
1D6
330
1F
100
AcDbEntity
  8
0
  6
Continuous
 62
     7
370
    25
100
AcDbLine
 10
3507.2772599898
 20
3952.0630403367
 30
0.0
 11
3509.2772342406
 21
3952.0630403367
 31
0.0
  0
LINE
  5
1D7
330
1F
100
AcDbEntity
  8
0
  6
Continuous
 62
     7
370
    25
100
AcDbLine
 10
3507.2772599898
 20
1892.062935507
 30
0.0
 11
3507.2772599898
 21
1903.8129353375
 31
0.0
  0
LINE
  5
1D8
330
1F
100
AcDbEntity
  8
0
  6
Continuous
 62
     7
370
    25
100
AcDbLine
 10
3507.2772599898
 20
1947.8129348663
 30
0.0
 11
3507.2772599898
 21
3869.8129220811
 31
0.0
  0
LINE
  5
1D9
330
1F
100
AcDbEntity
  8
0
  6
Continuous
 62
     7
370
    25
100
AcDbLine
 10
3507.2772599898
 20
3913.8128324357
 30
0.0
 11
3507.2772599898
 21
3952.0630403367
 31
0.0
  0
LINE
  5
1DA
330
1F
100
AcDbEntity
  8
0
  6
Continuous
 62
     7
370
    25
100
AcDbLine
 10
3509.2772342406
 20
1892.062935507
 30
0.0
 11
3509.2772342406
 21
1903.8129353375
 31
0.0
  0
LINE
  5
1DB
330
1F
100
AcDbEntity
  8
0
  6
Continuous
 62
     7
370
    25
100
AcDbLine
 10
3509.2772342406
 20
1947.8129348663
 30
0.0
 11
3509.2772342406
 21
3869.8129220811
 31
0.0
  0
LINE
  5
1DC
330
1F
100
AcDbEntity
  8
0
  6
Continuous
 62
     7
370
    25
100
AcDbLine
 10
3509.2772342406
 20
3913.8128324357
 30
0.0
 11
3509.2772342406
 21
3952.0630403367
 31
0.0
  0
LINE
  5
1DD
330
1F
100
AcDbEntity
  8
0
  6
Continuous
 62
     7
370
    25
100
AcDbLine
 10
3505.2772261344
 20
1892.062935507
 30
0.0
 11
3507.2772599898
 21
1892.062935507
 31
0.0
  0
LINE
  5
1DE
330
1F
100
AcDbEntity
  8
0
  6
Continuous
 62
     7
370
    25
100
AcDbLine
 10
3507.2772599898
 20
3952.0630403367
 30
0.0
 11
3505.2772261344
 21
3952.0630403367
 31
0.0
  0
LINE
  5
1DF
330
1F
100
AcDbEntity
  8
0
  6
Continuous
 62
     7
370
    25
100
AcDbLine
 10
3479.2772032462
 20
1892.062935507
 30
0.0
 11
3505.2772261344
 21
1892.062935507
 31
0.0
  0
LINE
  5
1E0
330
1F
100
AcDbEntity
  8
0
  6
Continuous
 62
     7
370
    25
100
AcDbLine
 10
3479.2772032462
 20
3952.0630403367
 30
0.0
 11
3505.2772261344
 21
3952.0630403367
 31
0.0
  0
LINE
  5
1E1
330
1F
100
AcDbEntity
  8
0
  6
Continuous
 62
     7
370
    25
100
AcDbLine
 10
1975.2772547446
 20
1892.062935507
 30
0.0
 11
1951.2772061072
 21
1892.062935507
 31
0.0
  0
LINE
  5
1E2
330
1F
100
AcDbEntity
  8
0
  6
Continuous
 62
     7
370
    25
100
AcDbLine
 10
1975.2772547446
 20
3952.0630403367
 30
0.0
 11
1951.2772061072
 21
3952.0630403367
 31
0.0
  0
ARC
  5
1E3
330
1F
100
AcDbEntity
  8
0
  6
Continuous
 62
     7
370
    25
100
AcDbCircle
 10
1963.2772304259
 20
2382.0629354326
 30
0.0
 40
4.999999999999091
100
AcDbArc
 50
0.0
 51
180.0
  0
LINE
  5
1E4
330
1F
100
AcDbEntity
  8
0
  6
Continuous
 62
     7
370
    25
100
AcDbLine
 10
1958.2772351943
 20
2382.06292828
 30
0.0
 11
1958.2772351943
 21
2372.0629378167
 31
0.0
  0
ARC
  5
1E5
330
1F
100
AcDbEntity
  8
0
  6
Continuous
 62
     7
370
    25
100
AcDbCircle
 10
1963.2772304259
 20
2372.0629354326
 30
0.0
 40
5.0
100
AcDbArc
 50
180.0
 51
0.0
  0
LINE
  5
1E6
330
1F
100
AcDbEntity
  8
0
  6
Continuous
 62
     7
370
    25
100
AcDbLine
 10
1968.2772256575
 20
2372.0629378167
 30
0.0
 11
1968.2772256575
 21
2382.06292828
 31
0.0
  0
ARC
  5
1E7
330
1F
100
AcDbEntity
  8
0
  6
Continuous
 62
     7
370
    25
100
AcDbCircle
 10
1963.2772304259
 20
3816.0629354325
 30
0.0
 40
5.000000000000682
100
AcDbArc
 50
179.9999999999
 51
0.0000000001
  0
LINE
  5
1E8
330
1F
100
AcDbEntity
  8
0
  6
Continuous
 62
     7
370
    25
100
AcDbLine
 10
1968.2772256575
 20
3816.0628839341
 30
0.0
 11
1968.2772256575
 21
3846.0629745332
 31
0.0
  0
ARC
  5
1E9
330
1F
100
AcDbEntity
  8
0
  6
Continuous
 62
     7
370
    25
100
AcDbCircle
 10
1963.2772304259
 20
3846.0629354325
 30
0.0
 40
5.000000000000682
100
AcDbArc
 50
0.0
 51
179.9999999998
  0
LINE
  5
1EA
330
1F
100
AcDbEntity
  8
0
  6
Continuous
 62
     7
370
    25
100
AcDbLine
 10
1958.2772351943
 20
3846.0629745332
 30
0.0
 11
1958.2772351943
 21
3816.0628839341
 31
0.0
  0
ARC
  5
1EB
330
1F
100
AcDbEntity
  8
0
  6
Continuous
 62
     7
370
    25
100
AcDbCircle
 10
1963.2772304259
 20
3333.0629354325
 30
0.0
 40
4.999999999999318
100
AcDbArc
 50
180.0
 51
0.0000000001
  0
LINE
  5
1EC
330
1F
100
AcDbEntity
  8
0
  6
Continuous
 62
     7
370
    25
100
AcDbLine
 10
1968.2772256575
 20
3333.0629630891
 30
0.0
 11
1968.2772256575
 21
3363.0629344788
 31
0.0
  0
ARC
  5
1ED
330
1F
100
AcDbEntity
  8
0
  6
Continuous
 62
     7
370
    25
100
AcDbCircle
 10
1963.2772304259
 20
3363.0629354325
 30
0.0
 40
5.000000000000227
100
AcDbArc
 50
0.0000000001
 51
180.0
  0
LINE
  5
1EE
330
1F
100
AcDbEntity
  8
0
  6
Continuous
 62
     7
370
    25
100
AcDbLine
 10
1958.2772351943
 20
3363.0629344788
 30
0.0
 11
1958.2772351943
 21
3333.0629630891
 31
0.0
  0
ARC
  5
1EF
330
1F
100
AcDbEntity
  8
0
  6
Continuous
 62
     7
370
    25
100
AcDbCircle
 10
1963.2772304259
 20
2511.0629354326
 30
0.0
 40
5.0
100
AcDbArc
 50
0.0
 51
179.9999999998
  0
LINE
  5
1F0
330
1F
100
AcDbEntity
  8
0
  6
Continuous
 62
     7
370
    25
100
AcDbLine
 10
1958.2772351943
 20
2511.0629363862
 30
0.0
 11
1958.2772351943
 21
2481.0629649964
 31
0.0
  0
ARC
  5
1F1
330
1F
100
AcDbEntity
  8
0
  6
Continuous
 62
     7
370
    25
100
AcDbCircle
 10
1963.2772304259
 20
2481.0629354326
 30
0.0
 40
5.0
100
AcDbArc
 50
180.0
 51
0.0000000001
  0
LINE
  5
1F2
330
1F
100
AcDbEntity
  8
0
  6
Continuous
 62
     7
370
    25
100
AcDbLine
 10
1968.2772256575
 20
2481.0629649964
 30
0.0
 11
1968.2772256575
 21
2511.0629363862
 31
0.0
  0
ARC
  5
1F3
330
1F
100
AcDbEntity
  8
0
  6
Continuous
 62
     7
370
    25
100
AcDbCircle
 10
1963.2772304259
 20
2308.0629354326
 30
0.0
 40
5.0
100
AcDbArc
 50
0.0
 51
180.0
  0
LINE
  5
1F4
330
1F
100
AcDbEntity
  8
0
  6
Continuous
 62
     7
370
    25
100
AcDbLine
 10
1958.2772351943
 20
2308.0629273263
 30
0.0
 11
1958.2772351943
 21
2298.062936863
 31
0.0
  0
ARC
  5
1F5
330
1F
100
AcDbEntity
  8
0
  6
Continuous
 62
     7
370
    25
100
AcDbCircle
 10
1963.2772304259
 20
2298.0629354326
 30
0.0
 40
5.000000000000227
100
AcDbArc
 50
180.0
 51
0.0
  0
LINE
  5
1F6
330
1F
100
AcDbEntity
  8
0
  6
Continuous
 62
     7
370
    25
100
AcDbLine
 10
1968.2772256575
 20
2298.062936863
 30
0.0
 11
1968.2772256575
 21
2308.0629273263
 31
0.0
  0
ARC
  5
1F7
330
1F
100
AcDbEntity
  8
0
  6
Continuous
 62
     7
370
    25
100
AcDbCircle
 10
1963.2772304259
 20
1957.0629354326
 30
0.0
 40
5.0
100
AcDbArc
 50
360.0
 51
180.0
  0
LINE
  5
1F8
330
1F
100
AcDbEntity
  8
0
  6
Continuous
 62
     7
370
    25
100
AcDbLine
 10
1958.2772351943
 20
1957.0629349855
 30
0.0
 11
1958.2772351943
 21
1947.8129348663
 31
0.0
  0
LINE
  5
1F9
330
1F
100
AcDbEntity
  8
0
  6
Continuous
 62
     7
370
    25
100
AcDbLine
 10
1958.2772351943
 20
1925.3129358349
 30
0.0
 11
1958.2772351943
 21
1921.0629356039
 31
0.0
  0
ARC
  5
1FA
330
1F
100
AcDbEntity
  8
0
  6
Continuous
 62
     7
370
    25
100
AcDbCircle
 10
1963.2772304259
 20
1921.0629354326
 30
0.0
 40
5.0
100
AcDbArc
 50
180.0
 51
238.2116693839
  0
ARC
  5
1FB
330
1F
100
AcDbEntity
  8
0
  6
Continuous
 62
     7
370
    25
100
AcDbCircle
 10
1963.2772304259
 20
1921.0629354326
 30
0.0
 40
4.999999999999703
100
AcDbArc
 50
301.7883306161
 51
0.0
  0
LINE
  5
1FC
330
1F
100
AcDbEntity
  8
0
  6
Continuous
 62
     7
370
    25
100
AcDbLine
 10
1968.2772256575
 20
1921.0629356039
 30
0.0
 11
1968.2772256575
 21
1925.3129358349
 31
0.0
  0
LINE
  5
1FD
330
1F
100
AcDbEntity
  8
0
  6
Continuous
 62
     7
370
    25
100
AcDbLine
 10
1968.2772256575
 20
1947.8129348663
 30
0.0
 11
1968.2772256575
 21
1957.0629349855
 31
0.0
  0
ARC
  5
1FE
330
1F
100
AcDbEntity
  8
0
  6
Continuous
 62
     7
370
    25
100
AcDbCircle
 10
1963.2772304259
 20
3462.0629354325
 30
0.0
 40
5.0
100
AcDbArc
 50
180.0
 51
0.0
  0
LINE
  5
1FF
330
1F
100
AcDbEntity
  8
0
  6
Continuous
 62
     7
370
    25
100
AcDbLine
 10
1968.2772256575
 20
3462.0629115907
 30
0.0
 11
1968.2772256575
 21
3472.0629020539
 31
0.0
  0
ARC
  5
200
330
1F
100
AcDbEntity
  8
0
  6
Continuous
 62
     7
370
    25
100
AcDbCircle
 10
1963.2772304259
 20
3472.0629354325
 30
0.0
 40
5.000000000000455
100
AcDbArc
 50
0.0
 51
180.0
  0
LINE
  5
201
330
1F
100
AcDbEntity
  8
0
  6
Continuous
 62
     7
370
    25
100
AcDbLine
 10
1958.2772351943
 20
3472.0629020539
 30
0.0
 11
1958.2772351943
 21
3462.0629115907
 31
0.0
  0
ARC
  5
202
330
1F
100
AcDbEntity
  8
0
  6
Continuous
 62
     7
370
    25
100
AcDbCircle
 10
1963.2772304259
 20
3536.0629354325
 30
0.0
 40
5.0
100
AcDbArc
 50
180.0
 51
0.0
  0
LINE
  5
203
330
1F
100
AcDbEntity
  8
0
  6
Continuous
 62
     7
370
    25
100
AcDbLine
 10
1968.2772256575
 20
3536.0629125443
 30
0.0
 11
1968.2772256575
 21
3546.0629030076
 31
0.0
  0
ARC
  5
204
330
1F
100
AcDbEntity
  8
0
  6
Continuous
 62
     7
370
    25
100
AcDbCircle
 10
1963.2772304259
 20
3546.0629354325
 30
0.0
 40
5.000000000000682
100
AcDbArc
 50
0.0000000001
 51
179.9999999999
  0
LINE
  5
205
330
1F
100
AcDbEntity
  8
0
  6
Continuous
 62
     7
370
    25
100
AcDbLine
 10
1958.2772351943
 20
3546.0629030076
 30
0.0
 11
1958.2772351943
 21
3536.0629125443
 31
0.0
  0
ARC
  5
206
330
1F
100
AcDbEntity
  8
0
  6
Continuous
 62
     7
370
    25
100
AcDbCircle
 10
1963.2772304259
 20
2028.0629354326
 30
0.0
 40
5.000000000001137
100
AcDbArc
 50
0.0000000001
 51
180.0
  0
LINE
  5
207
330
1F
100
AcDbEntity
  8
0
  6
Continuous
 62
     7
370
    25
100
AcDbLine
 10
1958.2772351943
 20
2028.0629335848
 30
0.0
 11
1958.2772351943
 21
1998.0629323927
 31
0.0
  0
ARC
  5
208
330
1F
100
AcDbEntity
  8
0
  6
Continuous
 62
     7
370
    25
100
AcDbCircle
 10
1963.2772304259
 20
1998.0629354326
 30
0.0
 40
5.000000000001137
100
AcDbArc
 50
180.0
 51
0.0000000001
  0
LINE
  5
209
330
1F
100
AcDbEntity
  8
0
  6
Continuous
 62
     7
370
    25
100
AcDbLine
 10
1968.2772256575
 20
1998.0629323927
 30
0.0
 11
1968.2772256575
 21
2028.0629335848
 31
0.0
  0
LINE
  5
20A
330
1F
100
AcDbEntity
  8
0
  6
Continuous
 62
     7
370
    25
100
AcDbLine
 10
1968.2772256575
 20
3892.3129602281
 30
0.0
 11
1968.2772256575
 21
3900.8129402009
 31
0.0
  0
LINE
  5
20B
330
1F
100
AcDbEntity
  8
0
  6
Continuous
 62
     7
370
    25
100
AcDbLine
 10
1968.2772256575
 20
3913.8128324357
 30
0.0
 11
1968.2772256575
 21
3923.0629964677
 31
0.0
  0
ARC
  5
20C
330
1F
100
AcDbEntity
  8
0
  6
Continuous
 62
     7
370
    25
100
AcDbCircle
 10
1963.2772304259
 20
3923.0629354325
 30
0.0
 40
5.0
100
AcDbArc
 50
0.0
 51
180.0
  0
LINE
  5
20D
330
1F
100
AcDbEntity
  8
0
  6
Continuous
 62
     7
370
    25
100
AcDbLine
 10
1958.2772351943
 20
3923.0629964677
 30
0.0
 11
1958.2772351943
 21
3913.8128324357
 31
0.0
  0
LINE
  5
20E
330
1F
100
AcDbEntity
  8
0
  6
Continuous
 62
     7
370
    25
100
AcDbLine
 10
1958.2772351943
 20
3900.8129402009
 30
0.0
 11
1958.2772351943
 21
3892.3129602281
 31
0.0
  0
LINE
  5
20F
330
1F
100
AcDbEntity
  8
0
  6
Continuous
 62
     7
370
    25
100
AcDbLine
 10
1979.2772032462
 20
1892.062935507
 30
0.0
 11
1979.2772032462
 21
1903.8129353375
 31
0.0
  0
LINE
  5
210
330
1F
100
AcDbEntity
  8
0
  6
Continuous
 62
     7
370
    25
100
AcDbLine
 10
1979.2772032462
 20
1916.8129353729
 30
0.0
 11
1979.2772032462
 21
1925.3129358349
 31
0.0
  0
LINE
  5
211
330
1F
100
AcDbEntity
  8
0
  6
Continuous
 62
     7
370
    25
100
AcDbLine
 10
1979.2772032462
 20
1947.8129348663
 30
0.0
 11
1979.2772032462
 21
3869.8129220811
 31
0.0
  0
LINE
  5
212
330
1F
100
AcDbEntity
  8
0
  6
Continuous
 62
     7
370
    25
100
AcDbLine
 10
1979.2772032462
 20
3892.3129602281
 30
0.0
 11
1979.2772032462
 21
3900.8129402009
 31
0.0
  0
LINE
  5
213
330
1F
100
AcDbEntity
  8
0
  6
Continuous
 62
     7
370
    25
100
AcDbLine
 10
1979.2772032462
 20
3913.8128324357
 30
0.0
 11
1979.2772032462
 21
3952.0630403367
 31
0.0
  0
LINE
  5
214
330
1F
100
AcDbEntity
  8
0
  6
Continuous
 62
     7
370
    25
100
AcDbLine
 10
1979.2772032462
 20
1892.062935507
 30
0.0
 11
1975.2772547446
 21
1892.062935507
 31
0.0
  0
LINE
  5
215
330
1F
100
AcDbEntity
  8
0
  6
Continuous
 62
     7
370
    25
100
AcDbLine
 10
1975.2772547446
 20
3952.0630403367
 30
0.0
 11
1979.2772032462
 21
3952.0630403367
 31
0.0
  0
LINE
  5
216
330
1F
100
AcDbEntity
  8
0
  6
Continuous
 62
     7
370
    25
100
AcDbLine
 10
1951.2772061072
 20
1892.062935507
 30
0.0
 11
1947.2772576056
 21
1892.062935507
 31
0.0
  0
LINE
  5
217
330
1F
100
AcDbEntity
  8
0
  6
Continuous
 62
     7
370
    25
100
AcDbLine
 10
1947.2772576056
 20
1892.062935507
 30
0.0
 11
1947.2772576056
 21
1903.8129353375
 31
0.0
  0
LINE
  5
218
330
1F
100
AcDbEntity
  8
0
  6
Continuous
 62
     7
370
    25
100
AcDbLine
 10
1947.2772576056
 20
1947.8129348663
 30
0.0
 11
1947.2772576056
 21
1994.062931737
 31
0.0
  0
LINE
  5
219
330
1F
100
AcDbEntity
  8
0
  6
Continuous
 62
     7
370
    25
100
AcDbLine
 10
1947.2772576056
 20
1994.062931737
 30
0.0
 11
1947.2772576056
 21
2032.0629342404
 31
0.0
  0
LINE
  5
21A
330
1F
100
AcDbEntity
  8
0
  6
Continuous
 62
     7
370
    25
100
AcDbLine
 10
1947.2772576056
 20
2032.0629342404
 30
0.0
 11
1947.2772576056
 21
2284.0629382935
 31
0.0
  0
LINE
  5
21B
330
1F
100
AcDbEntity
  8
0
  6
Continuous
 62
     7
370
    25
100
AcDbLine
 10
1947.2772576056
 20
2284.0629382935
 30
0.0
 11
1947.2772576056
 21
2322.0629258958
 31
0.0
  0
LINE
  5
21C
330
1F
100
AcDbEntity
  8
0
  6
Continuous
 62
     7
370
    25
100
AcDbLine
 10
1947.2772576056
 20
2322.0629258958
 30
0.0
 11
1947.2772576056
 21
2358.0629392472
 31
0.0
  0
LINE
  5
21D
330
1F
100
AcDbEntity
  8
0
  6
Continuous
 62
     7
370
    25
100
AcDbLine
 10
1947.2772576056
 20
2358.0629392472
 30
0.0
 11
1947.2772576056
 21
2396.0629268495
 31
0.0
  0
LINE
  5
21E
330
1F
100
AcDbEntity
  8
0
  6
Continuous
 62
     7
370
    25
100
AcDbLine
 10
1947.2772576056
 20
2396.0629268495
 30
0.0
 11
1947.2772576056
 21
2477.0629568902
 31
0.0
  0
LINE
  5
21F
330
1F
100
AcDbEntity
  8
0
  6
Continuous
 62
     7
370
    25
100
AcDbLine
 10
1947.2772576056
 20
2477.0629568902
 30
0.0
 11
1947.2772576056
 21
2515.0629444924
 31
0.0
  0
LINE
  5
220
330
1F
100
AcDbEntity
  8
0
  6
Continuous
 62
     7
370
    25
100
AcDbLine
 10
1947.2772576056
 20
2515.0629444924
 30
0.0
 11
1947.2772576056
 21
3329.0628953782
 31
0.0
  0
LINE
  5
221
330
1F
100
AcDbEntity
  8
0
  6
Continuous
 62
     7
370
    25
100
AcDbLine
 10
1947.2772576056
 20
3329.0628953782
 30
0.0
 11
1947.2772576056
 21
3367.0628829804
 31
0.0
  0
LINE
  5
222
330
1F
100
AcDbEntity
  8
0
  6
Continuous
 62
     7
370
    25
100
AcDbLine
 10
1947.2772576056
 20
3367.0628829804
 30
0.0
 11
1947.2772576056
 21
3448.0629726258
 31
0.0
  0
LINE
  5
223
330
1F
100
AcDbEntity
  8
0
  6
Continuous
 62
     7
370
    25
100
AcDbLine
 10
1947.2772576056
 20
3448.0629726258
 30
0.0
 11
1947.2772576056
 21
3486.0629602281
 31
0.0
  0
LINE
  5
224
330
1F
100
AcDbEntity
  8
0
  6
Continuous
 62
     7
370
    25
100
AcDbLine
 10
1947.2772576056
 20
3486.0629602281
 30
0.0
 11
1947.2772576056
 21
3522.0629735795
 31
0.0
  0
LINE
  5
225
330
1F
100
AcDbEntity
  8
0
  6
Continuous
 62
     7
370
    25
100
AcDbLine
 10
1947.2772576056
 20
3522.0629735795
 30
0.0
 11
1947.2772576056
 21
3560.0629611817
 31
0.0
  0
LINE
  5
226
330
1F
100
AcDbEntity
  8
0
  6
Continuous
 62
     7
370
    25
100
AcDbLine
 10
1947.2772576056
 20
3560.0629611817
 30
0.0
 11
1947.2772576056
 21
3812.0629354325
 31
0.0
  0
LINE
  5
227
330
1F
100
AcDbEntity
  8
0
  6
Continuous
 62
     7
370
    25
100
AcDbLine
 10
1947.2772576056
 20
3812.0629354325
 30
0.0
 11
1947.2772576056
 21
3850.0629230348
 31
0.0
  0
LINE
  5
228
330
1F
100
AcDbEntity
  8
0
  6
Continuous
 62
     7
370
    25
100
AcDbLine
 10
1947.2772576056
 20
3850.0629230348
 30
0.0
 11
1947.2772576056
 21
3869.8129220811
 31
0.0
  0
LINE
  5
229
330
1F
100
AcDbEntity
  8
0
  6
Continuous
 62
     7
370
    25
100
AcDbLine
 10
1947.2772576056
 20
3913.8128324357
 30
0.0
 11
1947.2772576056
 21
3952.0630403367
 31
0.0
  0
LINE
  5
22A
330
1F
100
AcDbEntity
  8
0
  6
Continuous
 62
     7
370
    25
100
AcDbLine
 10
1947.2772576056
 20
3952.0630403367
 30
0.0
 11
1951.2772061072
 21
3952.0630403367
 31
0.0
  0
LINE
  5
22B
330
1F
100
AcDbEntity
  8
0
  6
Continuous
 62
     7
370
    25
100
AcDbLine
 10
2007.2772599898
 20
1892.062935507
 30
0.0
 11
2009.2772342406
 21
1892.062935507
 31
0.0
  0
LINE
  5
22C
330
1F
100
AcDbEntity
  8
0
  6
Continuous
 62
     7
370
    25
100
AcDbLine
 10
2007.2772599898
 20
1892.062935507
 30
0.0
 11
2007.2772599898
 21
1903.8129353375
 31
0.0
  0
LINE
  5
22D
330
1F
100
AcDbEntity
  8
0
  6
Continuous
 62
     7
370
    25
100
AcDbLine
 10
2007.2772599898
 20
1916.8129353729
 30
0.0
 11
2007.2772599898
 21
1925.3129358349
 31
0.0
  0
LINE
  5
22E
330
1F
100
AcDbEntity
  8
0
  6
Continuous
 62
     7
370
    25
100
AcDbLine
 10
2007.2772599898
 20
1947.8129348663
 30
0.0
 11
2007.2772599898
 21
3869.8129220811
 31
0.0
  0
LINE
  5
22F
330
1F
100
AcDbEntity
  8
0
  6
Continuous
 62
     7
370
    25
100
AcDbLine
 10
2007.2772599898
 20
3892.3129602281
 30
0.0
 11
2007.2772599898
 21
3900.8129402009
 31
0.0
  0
LINE
  5
230
330
1F
100
AcDbEntity
  8
0
  6
Continuous
 62
     7
370
    25
100
AcDbLine
 10
2007.2772599898
 20
3913.8128324357
 30
0.0
 11
2007.2772599898
 21
3952.0630403367
 31
0.0
  0
LINE
  5
231
330
1F
100
AcDbEntity
  8
0
  6
Continuous
 62
     7
370
    25
100
AcDbLine
 10
2007.2772599898
 20
3952.0630403367
 30
0.0
 11
2009.2772342406
 21
3952.0630403367
 31
0.0
  0
LINE
  5
232
330
1F
100
AcDbEntity
  8
0
  6
Continuous
 62
     7
370
    25
100
AcDbLine
 10
2009.2772342406
 20
1892.062935507
 30
0.0
 11
2009.2772342406
 21
1903.8129353375
 31
0.0
  0
LINE
  5
233
330
1F
100
AcDbEntity
  8
0
  6
Continuous
 62
     7
370
    25
100
AcDbLine
 10
2009.2772342406
 20
1916.8129353729
 30
0.0
 11
2009.2772342406
 21
1925.3129358349
 31
0.0
  0
LINE
  5
234
330
1F
100
AcDbEntity
  8
0
  6
Continuous
 62
     7
370
    25
100
AcDbLine
 10
2009.2772342406
 20
1947.8129348663
 30
0.0
 11
2009.2772342406
 21
3869.8129220811
 31
0.0
  0
LINE
  5
235
330
1F
100
AcDbEntity
  8
0
  6
Continuous
 62
     7
370
    25
100
AcDbLine
 10
2009.2772342406
 20
3892.3129602281
 30
0.0
 11
2009.2772342406
 21
3900.8129402009
 31
0.0
  0
LINE
  5
236
330
1F
100
AcDbEntity
  8
0
  6
Continuous
 62
     7
370
    25
100
AcDbLine
 10
2009.2772342406
 20
3913.8128324357
 30
0.0
 11
2009.2772342406
 21
3952.0630403367
 31
0.0
  0
LINE
  5
237
330
1F
100
AcDbEntity
  8
0
  6
Continuous
 62
     7
370
    25
100
AcDbLine
 10
2005.2772261344
 20
1892.062935507
 30
0.0
 11
2007.2772599898
 21
1892.062935507
 31
0.0
  0
LINE
  5
238
330
1F
100
AcDbEntity
  8
0
  6
Continuous
 62
     7
370
    25
100
AcDbLine
 10
2007.2772599898
 20
3952.0630403367
 30
0.0
 11
2005.2772261344
 21
3952.0630403367
 31
0.0
  0
LINE
  5
239
330
1F
100
AcDbEntity
  8
0
  6
Continuous
 62
     7
370
    25
100
AcDbLine
 10
1979.2772032462
 20
1892.062935507
 30
0.0
 11
2005.2772261344
 21
1892.062935507
 31
0.0
  0
LINE
  5
23A
330
1F
100
AcDbEntity
  8
0
  6
Continuous
 62
     7
370
    25
100
AcDbLine
 10
1979.2772032462
 20
3952.0630403367
 30
0.0
 11
2005.2772261344
 21
3952.0630403367
 31
0.0
  0
LINE
  5
23B
330
1F
100
AcDbEntity
  8
0
  6
Continuous
 62
     7
370
    25
100
AcDbLine
 10
3716.2772514067
 20
1903.8129353375
 30
0.0
 11
1710.2772094451
 21
1903.8129353375
 31
0.0
  0
LINE
  5
23C
330
1F
100
AcDbEntity
  8
0
  6
Continuous
 62
     7
370
    25
100
AcDbLine
 10
3716.2772514067
 20
1905.8129354325
 30
0.0
 11
1710.2772094451
 21
1905.8129354325
 31
0.0
  0
LINE
  5
23D
330
1F
100
AcDbEntity
  8
0
  6
Continuous
 62
     7
370
    25
100
AcDbLine
 10
3716.2772514067
 20
1903.8129353375
 30
0.0
 11
3716.2772514067
 21
1905.8129354325
 31
0.0
  0
LINE
  5
23E
330
1F
100
AcDbEntity
  8
0
  6
Continuous
 62
     7
370
    25
100
AcDbLine
 10
1710.2772094451
 20
1903.8129353375
 30
0.0
 11
1710.2772094451
 21
1905.8129354325
 31
0.0
  0
LINE
  5
23F
330
1F
100
AcDbEntity
  8
0
  6
Continuous
 62
     7
370
    25
100
AcDbLine
 10
1710.2772094451
 20
1943.8129342106
 30
0.0
 11
3716.2772514067
 21
1943.8129342106
 31
0.0
  0
LINE
  5
240
330
1F
100
AcDbEntity
  8
0
  6
Continuous
 62
     7
370
    25
100
AcDbLine
 10
1710.2772094451
 20
1933.8129362968
 30
0.0
 11
3716.2772514067
 21
1933.8129362968
 31
0.0
  0
LINE
  5
241
330
1F
100
AcDbEntity
  8
0
  6
Continuous
 62
     7
370
    25
100
AcDbLine
 10
1710.2772094451
 20
1943.8129342106
 30
0.0
 11
1710.2772094451
 21
1933.8129362968
 31
0.0
  0
LINE
  5
242
330
1F
100
AcDbEntity
  8
0
  6
Continuous
 62
     7
370
    25
100
AcDbLine
 10
3716.2772514067
 20
1933.8129362968
 30
0.0
 11
3716.2772514067
 21
1943.8129342106
 31
0.0
  0
LINE
  5
243
330
1F
100
AcDbEntity
  8
0
  6
Continuous
 62
     7
370
    25
100
AcDbLine
 10
1710.2772094451
 20
1947.8129348663
 30
0.0
 11
3716.2772514067
 21
1947.8129348663
 31
0.0
  0
LINE
  5
244
330
1F
100
AcDbEntity
  8
0
  6
Continuous
 62
     7
370
    25
100
AcDbLine
 10
3716.2772514067
 20
1947.8129348663
 30
0.0
 11
3716.2772514067
 21
1943.8129342106
 31
0.0
  0
LINE
  5
245
330
1F
100
AcDbEntity
  8
0
  6
Continuous
 62
     7
370
    25
100
AcDbLine
 10
1710.2772094451
 20
1943.8129342106
 30
0.0
 11
1710.2772094451
 21
1947.8129348663
 31
0.0
  0
LINE
  5
246
330
1F
100
AcDbEntity
  8
0
  6
Continuous
 62
     7
370
    25
100
AcDbLine
 10
3716.2772514067
 20
1905.8129354325
 30
0.0
 11
3716.2772514067
 21
1907.8129355275
 31
0.0
  0
LINE
  5
247
330
1F
100
AcDbEntity
  8
0
  6
Continuous
 62
     7
370
    25
100
AcDbLine
 10
1710.2772094451
 20
1907.8129355275
 30
0.0
 11
1710.2772094451
 21
1905.8129354325
 31
0.0
  0
LINE
  5
248
330
1F
100
AcDbEntity
  8
0
  6
Continuous
 62
     7
370
    25
100
AcDbLine
 10
3716.2772514067
 20
1907.8129355275
 30
0.0
 11
1710.2772094451
 21
1907.8129355275
 31
0.0
  0
LINE
  5
249
330
1F
100
AcDbEntity
  8
0
  6
Continuous
 62
     7
370
    25
100
AcDbLine
 10
3446.2772108756
 20
1925.3129358349
 30
0.0
 11
3446.2772108756
 21
1916.8129353729
 31
0.0
  0
LINE
  5
24A
330
1F
100
AcDbEntity
  8
0
  6
Continuous
 62
     7
370
    25
100
AcDbLine
 10
1710.2772094451
 20
1933.8129362968
 30
0.0
 11
1710.2772094451
 21
1907.8129355275
 31
0.0
  0
LINE
  5
24B
330
1F
100
AcDbEntity
  8
0
  6
Continuous
 62
     7
370
    25
100
AcDbLine
 10
3716.2772514067
 20
1907.8129355275
 30
0.0
 11
3716.2772514067
 21
1933.8129362968
 31
0.0
  0
LINE
  5
24C
330
1F
100
AcDbEntity
  8
0
  6
Continuous
 62
     7
370
    25
100
AcDbLine
 10
3446.2772108756
 20
1916.8129353729
 30
0.0
 11
3479.2772032462
 21
1916.8129353729
 31
0.0
  0
LINE
  5
24D
330
1F
100
AcDbEntity
  8
0
  6
Continuous
 62
     7
370
    25
100
AcDbLine
 10
3651.2772537909
 20
1916.8129353729
 30
0.0
 11
3709.2772223197
 21
1916.8129353729
 31
0.0
  0
LINE
  5
24E
330
1F
100
AcDbEntity
  8
0
  6
Continuous
 62
     7
370
    25
100
AcDbLine
 10
3390.2772165976
 20
1916.8129353729
 30
0.0
 11
3390.2772165976
 21
1925.3129358349
 31
0.0
  0
LINE
  5
24F
330
1F
100
AcDbEntity
  8
0
  6
Continuous
 62
     7
370
    25
100
AcDbLine
 10
2021.2772585593
 20
1916.8129353729
 30
0.0
 11
2021.2772585593
 21
1925.3129358349
 31
0.0
  0
LINE
  5
250
330
1F
100
AcDbEntity
  8
0
  6
Continuous
 62
     7
370
    25
100
AcDbLine
 10
3390.2772165976
 20
1925.3129358349
 30
0.0
 11
3360.2772452078
 21
1925.3129358349
 31
0.0
  0
LINE
  5
251
330
1F
100
AcDbEntity
  8
0
  6
Continuous
 62
     7
370
    25
100
AcDbLine
 10
3598.2772208892
 20
1916.8129353729
 30
0.0
 11
3628.2772518836
 21
1916.8129353729
 31
0.0
  0
LINE
  5
252
330
1F
100
AcDbEntity
  8
0
  6
Continuous
 62
     7
370
    25
100
AcDbLine
 10
3360.2772452078
 20
1925.3129358349
 30
0.0
 11
3360.2772452078
 21
1916.8129353729
 31
0.0
  0
LINE
  5
253
330
1F
100
AcDbEntity
  8
0
  6
Continuous
 62
     7
370
    25
100
AcDbLine
 10
3598.2772208892
 20
1925.3129358349
 30
0.0
 11
3598.2772208892
 21
1916.8129353729
 31
0.0
  0
LINE
  5
254
330
1F
100
AcDbEntity
  8
0
  6
Continuous
 62
     7
370
    25
100
AcDbLine
 10
1947.2772576056
 20
1916.8129353729
 30
0.0
 11
1980.2772499762
 21
1916.8129353729
 31
0.0
  0
LINE
  5
255
330
1F
100
AcDbEntity
  8
0
  6
Continuous
 62
     7
370
    25
100
AcDbLine
 10
3709.2772223197
 20
1916.8129353729
 30
0.0
 11
3709.2772223197
 21
1925.3129358349
 31
0.0
  0
LINE
  5
256
330
1F
100
AcDbEntity
  8
0
  6
Continuous
 62
     7
370
    25
100
AcDbLine
 10
3539.2772056304
 20
1925.3129358349
 30
0.0
 11
3539.2772056304
 21
1916.8129353729
 31
0.0
  0
LINE
  5
257
330
1F
100
AcDbEntity
  8
0
  6
Continuous
 62
     7
370
    25
100
AcDbLine
 10
2036.2772442542
 20
1916.8129353729
 30
0.0
 11
2066.2772156439
 21
1916.8129353729
 31
0.0
  0
LINE
  5
258
330
1F
100
AcDbEntity
  8
0
  6
Continuous
 62
     7
370
    25
100
AcDbLine
 10
3360.2772452078
 20
1916.8129353729
 30
0.0
 11
3390.2772165976
 21
1916.8129353729
 31
0.0
  0
LINE
  5
259
330
1F
100
AcDbEntity
  8
0
  6
Continuous
 62
     7
370
    25
100
AcDbLine
 10
2066.2772156439
 20
1925.3129358349
 30
0.0
 11
2036.2772442542
 21
1925.3129358349
 31
0.0
  0
LINE
  5
25A
330
1F
100
AcDbEntity
  8
0
  6
Continuous
 62
     7
370
    25
100
AcDbLine
 10
1798.2772089682
 20
1916.8129353729
 30
0.0
 11
1828.2772399626
 21
1916.8129353729
 31
0.0
  0
LINE
  5
25B
330
1F
100
AcDbEntity
  8
0
  6
Continuous
 62
     7
370
    25
100
AcDbLine
 10
1798.2772089682
 20
1925.3129358349
 30
0.0
 11
1798.2772089682
 21
1916.8129353729
 31
0.0
  0
LINE
  5
25C
330
1F
100
AcDbEntity
  8
0
  6
Continuous
 62
     7
370
    25
100
AcDbLine
 10
1857.277224227
 20
1916.8129353729
 30
0.0
 11
1887.2772552214
 21
1916.8129353729
 31
0.0
  0
LINE
  5
25D
330
1F
100
AcDbEntity
  8
0
  6
Continuous
 62
     7
370
    25
100
AcDbLine
 10
3628.2772518836
 20
1916.8129353729
 30
0.0
 11
3628.2772518836
 21
1925.3129358349
 31
0.0
  0
LINE
  5
25E
330
1F
100
AcDbEntity
  8
0
  6
Continuous
 62
     7
370
    25
100
AcDbLine
 10
1887.2772552214
 20
1925.3129358349
 30
0.0
 11
1857.277224227
 21
1925.3129358349
 31
0.0
  0
LINE
  5
25F
330
1F
100
AcDbEntity
  8
0
  6
Continuous
 62
     7
370
    25
100
AcDbLine
 10
1980.2772499762
 20
1925.3129358349
 30
0.0
 11
1947.2772576056
 21
1925.3129358349
 31
0.0
  0
LINE
  5
260
330
1F
100
AcDbEntity
  8
0
  6
Continuous
 62
     7
370
    25
100
AcDbLine
 10
1857.277224227
 20
1925.3129358349
 30
0.0
 11
1857.277224227
 21
1916.8129353729
 31
0.0
  0
LINE
  5
261
330
1F
100
AcDbEntity
  8
0
  6
Continuous
 62
     7
370
    25
100
AcDbLine
 10
3709.2772223197
 20
1925.3129358349
 30
0.0
 11
3651.2772537909
 21
1925.3129358349
 31
0.0
  0
LINE
  5
262
330
1F
100
AcDbEntity
  8
0
  6
Continuous
 62
     7
370
    25
100
AcDbLine
 10
1775.2772070609
 20
1916.8129353729
 30
0.0
 11
1775.2772070609
 21
1925.3129358349
 31
0.0
  0
LINE
  5
263
330
1F
100
AcDbEntity
  8
0
  6
Continuous
 62
     7
370
    25
100
AcDbLine
 10
1828.2772399626
 20
1925.3129358349
 30
0.0
 11
1798.2772089682
 21
1925.3129358349
 31
0.0
  0
LINE
  5
264
330
1F
100
AcDbEntity
  8
0
  6
Continuous
 62
     7
370
    25
100
AcDbLine
 10
3651.2772537909
 20
1925.3129358349
 30
0.0
 11
3651.2772537909
 21
1916.8129353729
 31
0.0
  0
LINE
  5
265
330
1F
100
AcDbEntity
  8
0
  6
Continuous
 62
     7
370
    25
100
AcDbLine
 10
1995.2772356711
 20
1916.8129353729
 30
0.0
 11
2021.2772585593
 21
1916.8129353729
 31
0.0
  0
LINE
  5
266
330
1F
100
AcDbEntity
  8
0
  6
Continuous
 62
     7
370
    25
100
AcDbLine
 10
2036.2772442542
 20
1925.3129358349
 30
0.0
 11
2036.2772442542
 21
1916.8129353729
 31
0.0
  0
LINE
  5
267
330
1F
100
AcDbEntity
  8
0
  6
Continuous
 62
     7
370
    25
100
AcDbLine
 10
2021.2772585593
 20
1925.3129358349
 30
0.0
 11
1995.2772356711
 21
1925.3129358349
 31
0.0
  0
LINE
  5
268
330
1F
100
AcDbEntity
  8
0
  6
Continuous
 62
     7
370
    25
100
AcDbLine
 10
1980.2772499762
 20
1916.8129353729
 30
0.0
 11
1980.2772499762
 21
1925.3129358349
 31
0.0
  0
LINE
  5
269
330
1F
100
AcDbEntity
  8
0
  6
Continuous
 62
     7
370
    25
100
AcDbLine
 10
1995.2772356711
 20
1925.3129358349
 30
0.0
 11
1995.2772356711
 21
1916.8129353729
 31
0.0
  0
LINE
  5
26A
330
1F
100
AcDbEntity
  8
0
  6
Continuous
 62
     7
370
    25
100
AcDbLine
 10
3431.2772251807
 20
1916.8129353729
 30
0.0
 11
3431.2772251807
 21
1925.3129358349
 31
0.0
  0
LINE
  5
26B
330
1F
100
AcDbEntity
  8
0
  6
Continuous
 62
     7
370
    25
100
AcDbLine
 10
1947.2772576056
 20
1925.3129358349
 30
0.0
 11
1947.2772576056
 21
1916.8129353729
 31
0.0
  0
LINE
  5
26C
330
1F
100
AcDbEntity
  8
0
  6
Continuous
 62
     7
370
    25
100
AcDbLine
 10
3539.2772056304
 20
1916.8129353729
 30
0.0
 11
3569.2772366248
 21
1916.8129353729
 31
0.0
  0
LINE
  5
26D
330
1F
100
AcDbEntity
  8
0
  6
Continuous
 62
     7
370
    25
100
AcDbLine
 10
3569.2772366248
 20
1916.8129353729
 30
0.0
 11
3569.2772366248
 21
1925.3129358349
 31
0.0
  0
LINE
  5
26E
330
1F
100
AcDbEntity
  8
0
  6
Continuous
 62
     7
370
    25
100
AcDbLine
 10
1828.2772399626
 20
1916.8129353729
 30
0.0
 11
1828.2772399626
 21
1925.3129358349
 31
0.0
  0
LINE
  5
26F
330
1F
100
AcDbEntity
  8
0
  6
Continuous
 62
     7
370
    25
100
AcDbLine
 10
3569.2772366248
 20
1925.3129358349
 30
0.0
 11
3539.2772056304
 21
1925.3129358349
 31
0.0
  0
LINE
  5
270
330
1F
100
AcDbEntity
  8
0
  6
Continuous
 62
     7
370
    25
100
AcDbLine
 10
3405.2772022925
 20
1925.3129358349
 30
0.0
 11
3405.2772022925
 21
1916.8129353729
 31
0.0
  0
LINE
  5
271
330
1F
100
AcDbEntity
  8
0
  6
Continuous
 62
     7
370
    25
100
AcDbLine
 10
1717.2772385321
 20
1916.8129353729
 30
0.0
 11
1775.2772070609
 21
1916.8129353729
 31
0.0
  0
LINE
  5
272
330
1F
100
AcDbEntity
  8
0
  6
Continuous
 62
     7
370
    25
100
AcDbLine
 10
3628.2772518836
 20
1925.3129358349
 30
0.0
 11
3598.2772208892
 21
1925.3129358349
 31
0.0
  0
LINE
  5
273
330
1F
100
AcDbEntity
  8
0
  6
Continuous
 62
     7
370
    25
100
AcDbLine
 10
3479.2772032462
 20
1916.8129353729
 30
0.0
 11
3479.2772032462
 21
1925.3129358349
 31
0.0
  0
LINE
  5
274
330
1F
100
AcDbEntity
  8
0
  6
Continuous
 62
     7
370
    25
100
AcDbLine
 10
2066.2772156439
 20
1916.8129353729
 30
0.0
 11
2066.2772156439
 21
1925.3129358349
 31
0.0
  0
LINE
  5
275
330
1F
100
AcDbEntity
  8
0
  6
Continuous
 62
     7
370
    25
100
AcDbLine
 10
3479.2772032462
 20
1925.3129358349
 30
0.0
 11
3446.2772108756
 21
1925.3129358349
 31
0.0
  0
LINE
  5
276
330
1F
100
AcDbEntity
  8
0
  6
Continuous
 62
     7
370
    25
100
AcDbLine
 10
1775.2772070609
 20
1925.3129358349
 30
0.0
 11
1717.2772385321
 21
1925.3129358349
 31
0.0
  0
LINE
  5
277
330
1F
100
AcDbEntity
  8
0
  6
Continuous
 62
     7
370
    25
100
AcDbLine
 10
1717.2772385321
 20
1925.3129358349
 30
0.0
 11
1717.2772385321
 21
1916.8129353729
 31
0.0
  0
LINE
  5
278
330
1F
100
AcDbEntity
  8
0
  6
Continuous
 62
     7
370
    25
100
AcDbLine
 10
1887.2772552214
 20
1916.8129353729
 30
0.0
 11
1887.2772552214
 21
1925.3129358349
 31
0.0
  0
LINE
  5
279
330
1F
100
AcDbEntity
  8
0
  6
Continuous
 62
     7
370
    25
100
AcDbLine
 10
3431.2772251807
 20
1925.3129358349
 30
0.0
 11
3405.2772022925
 21
1925.3129358349
 31
0.0
  0
LINE
  5
27A
330
1F
100
AcDbEntity
  8
0
  6
Continuous
 62
     7
370
    25
100
AcDbLine
 10
3405.2772022925
 20
1916.8129353729
 30
0.0
 11
3431.2772251807
 21
1916.8129353729
 31
0.0
  0
LINE
  5
27B
330
1F
100
AcDbEntity
  8
0
  6
Continuous
 62
     7
370
    25
100
AcDbLine
 10
1710.2772094451
 20
3913.8128324357
 30
0.0
 11
3716.2772514067
 21
3913.8128324357
 31
0.0
  0
LINE
  5
27C
330
1F
100
AcDbEntity
  8
0
  6
Continuous
 62
     7
370
    25
100
AcDbLine
 10
3716.2772514067
 20
3913.8128324357
 30
0.0
 11
3716.2772514067
 21
3911.8129773942
 31
0.0
  0
LINE
  5
27D
330
1F
100
AcDbEntity
  8
0
  6
Continuous
 62
     7
370
    25
100
AcDbLine
 10
1710.2772094451
 20
3911.8129773942
 30
0.0
 11
3716.2772514067
 21
3911.8129773942
 31
0.0
  0
LINE
  5
27E
330
1F
100
AcDbEntity
  8
0
  6
Continuous
 62
     7
370
    25
100
AcDbLine
 10
1710.2772094451
 20
3913.8128324357
 30
0.0
 11
1710.2772094451
 21
3911.8129773942
 31
0.0
  0
LINE
  5
27F
330
1F
100
AcDbEntity
  8
0
  6
Continuous
 62
     7
370
    25
100
AcDbLine
 10
1710.2772094451
 20
3883.8129802552
 30
0.0
 11
1710.2772094451
 21
3873.812989792
 31
0.0
  0
LINE
  5
280
330
1F
100
AcDbEntity
  8
0
  6
Continuous
 62
     7
370
    25
100
AcDbLine
 10
3716.2772514067
 20
3883.8129802552
 30
0.0
 11
1710.2772094451
 21
3883.8129802552
 31
0.0
  0
LINE
  5
281
330
1F
100
AcDbEntity
  8
0
  6
Continuous
 62
     7
370
    25
100
AcDbLine
 10
3716.2772514067
 20
3873.812989792
 30
0.0
 11
1710.2772094451
 21
3873.812989792
 31
0.0
  0
LINE
  5
282
330
1F
100
AcDbEntity
  8
0
  6
Continuous
 62
     7
370
    25
100
AcDbLine
 10
3716.2772514067
 20
3873.812989792
 30
0.0
 11
3716.2772514067
 21
3883.8129802552
 31
0.0
  0
LINE
  5
283
330
1F
100
AcDbEntity
  8
0
  6
Continuous
 62
     7
370
    25
100
AcDbLine
 10
1710.2772094451
 20
3869.8129220811
 30
0.0
 11
1710.2772094451
 21
3873.812989792
 31
0.0
  0
LINE
  5
284
330
1F
100
AcDbEntity
  8
0
  6
Continuous
 62
     7
370
    25
100
AcDbLine
 10
3716.2772514067
 20
3869.8129220811
 30
0.0
 11
1710.2772094451
 21
3869.8129220811
 31
0.0
  0
LINE
  5
285
330
1F
100
AcDbEntity
  8
0
  6
Continuous
 62
     7
370
    25
100
AcDbLine
 10
3716.2772514067
 20
3873.812989792
 30
0.0
 11
3716.2772514067
 21
3869.8129220811
 31
0.0
  0
LINE
  5
286
330
1F
100
AcDbEntity
  8
0
  6
Continuous
 62
     7
370
    25
100
AcDbLine
 10
1710.2772094451
 20
3909.8128839341
 30
0.0
 11
3716.2772514067
 21
3909.8128839341
 31
0.0
  0
LINE
  5
287
330
1F
100
AcDbEntity
  8
0
  6
Continuous
 62
     7
370
    25
100
AcDbLine
 10
1710.2772094451
 20
3911.8129773942
 30
0.0
 11
1710.2772094451
 21
3909.8128839341
 31
0.0
  0
LINE
  5
288
330
1F
100
AcDbEntity
  8
0
  6
Continuous
 62
     7
370
    25
100
AcDbLine
 10
3716.2772514067
 20
3909.8128839341
 30
0.0
 11
3716.2772514067
 21
3911.8129773942
 31
0.0
  0
LINE
  5
289
330
1F
100
AcDbEntity
  8
0
  6
Continuous
 62
     7
370
    25
100
AcDbLine
 10
3569.2772366248
 20
3900.8129402009
 30
0.0
 11
3539.2772056304
 21
3900.8129402009
 31
0.0
  0
LINE
  5
28A
330
1F
100
AcDbEntity
  8
0
  6
Continuous
 62
     7
370
    25
100
AcDbLine
 10
3539.2772056304
 20
3900.8129402009
 30
0.0
 11
3539.2772056304
 21
3892.3129602281
 31
0.0
  0
LINE
  5
28B
330
1F
100
AcDbEntity
  8
0
  6
Continuous
 62
     7
370
    25
100
AcDbLine
 10
3539.2772056304
 20
3892.3129602281
 30
0.0
 11
3569.2772366248
 21
3892.3129602281
 31
0.0
  0
LINE
  5
28C
330
1F
100
AcDbEntity
  8
0
  6
Continuous
 62
     7
370
    25
100
AcDbLine
 10
3569.2772366248
 20
3892.3129602281
 30
0.0
 11
3569.2772366248
 21
3900.8129402009
 31
0.0
  0
LINE
  5
28D
330
1F
100
AcDbEntity
  8
0
  6
Continuous
 62
     7
370
    25
100
AcDbLine
 10
1717.2772385321
 20
3900.8129402009
 30
0.0
 11
1717.2772385321
 21
3892.3129602281
 31
0.0
  0
LINE
  5
28E
330
1F
100
AcDbEntity
  8
0
  6
Continuous
 62
     7
370
    25
100
AcDbLine
 10
1717.2772385321
 20
3892.3129602281
 30
0.0
 11
1775.2772070609
 21
3892.3129602281
 31
0.0
  0
LINE
  5
28F
330
1F
100
AcDbEntity
  8
0
  6
Continuous
 62
     7
370
    25
100
AcDbLine
 10
1775.2772070609
 20
3892.3129602281
 30
0.0
 11
1775.2772070609
 21
3900.8129402009
 31
0.0
  0
LINE
  5
290
330
1F
100
AcDbEntity
  8
0
  6
Continuous
 62
     7
370
    25
100
AcDbLine
 10
1775.2772070609
 20
3900.8129402009
 30
0.0
 11
1717.2772385321
 21
3900.8129402009
 31
0.0
  0
LINE
  5
291
330
1F
100
AcDbEntity
  8
0
  6
Continuous
 62
     7
370
    25
100
AcDbLine
 10
3390.2772165976
 20
3900.8129402009
 30
0.0
 11
3360.2772452078
 21
3900.8129402009
 31
0.0
  0
LINE
  5
292
330
1F
100
AcDbEntity
  8
0
  6
Continuous
 62
     7
370
    25
100
AcDbLine
 10
3360.2772452078
 20
3900.8129402009
 30
0.0
 11
3360.2772452078
 21
3892.3129602281
 31
0.0
  0
LINE
  5
293
330
1F
100
AcDbEntity
  8
0
  6
Continuous
 62
     7
370
    25
100
AcDbLine
 10
3360.2772452078
 20
3892.3129602281
 30
0.0
 11
3390.2772165976
 21
3892.3129602281
 31
0.0
  0
LINE
  5
294
330
1F
100
AcDbEntity
  8
0
  6
Continuous
 62
     7
370
    25
100
AcDbLine
 10
3390.2772165976
 20
3892.3129602281
 30
0.0
 11
3390.2772165976
 21
3900.8129402009
 31
0.0
  0
LINE
  5
295
330
1F
100
AcDbEntity
  8
0
  6
Continuous
 62
     7
370
    25
100
AcDbLine
 10
2021.2772585593
 20
3892.3129602281
 30
0.0
 11
2021.2772585593
 21
3900.8129402009
 31
0.0
  0
LINE
  5
296
330
1F
100
AcDbEntity
  8
0
  6
Continuous
 62
     7
370
    25
100
AcDbLine
 10
2021.2772585593
 20
3900.8129402009
 30
0.0
 11
1995.2772356711
 21
3900.8129402009
 31
0.0
  0
LINE
  5
297
330
1F
100
AcDbEntity
  8
0
  6
Continuous
 62
     7
370
    25
100
AcDbLine
 10
1995.2772356711
 20
3900.8129402009
 30
0.0
 11
1995.2772356711
 21
3892.3129602281
 31
0.0
  0
LINE
  5
298
330
1F
100
AcDbEntity
  8
0
  6
Continuous
 62
     7
370
    25
100
AcDbLine
 10
1995.2772356711
 20
3892.3129602281
 30
0.0
 11
2021.2772585593
 21
3892.3129602281
 31
0.0
  0
LINE
  5
299
330
1F
100
AcDbEntity
  8
0
  6
Continuous
 62
     7
370
    25
100
AcDbLine
 10
3446.2772108756
 20
3892.3129602281
 30
0.0
 11
3479.2772032462
 21
3892.3129602281
 31
0.0
  0
LINE
  5
29A
330
1F
100
AcDbEntity
  8
0
  6
Continuous
 62
     7
370
    25
100
AcDbLine
 10
3479.2772032462
 20
3892.3129602281
 30
0.0
 11
3479.2772032462
 21
3900.8129402009
 31
0.0
  0
LINE
  5
29B
330
1F
100
AcDbEntity
  8
0
  6
Continuous
 62
     7
370
    25
100
AcDbLine
 10
3479.2772032462
 20
3900.8129402009
 30
0.0
 11
3446.2772108756
 21
3900.8129402009
 31
0.0
  0
LINE
  5
29C
330
1F
100
AcDbEntity
  8
0
  6
Continuous
 62
     7
370
    25
100
AcDbLine
 10
3446.2772108756
 20
3900.8129402009
 30
0.0
 11
3446.2772108756
 21
3892.3129602281
 31
0.0
  0
LINE
  5
29D
330
1F
100
AcDbEntity
  8
0
  6
Continuous
 62
     7
370
    25
100
AcDbLine
 10
1980.2772499762
 20
3892.3129602281
 30
0.0
 11
1980.2772499762
 21
3900.8129402009
 31
0.0
  0
LINE
  5
29E
330
1F
100
AcDbEntity
  8
0
  6
Continuous
 62
     7
370
    25
100
AcDbLine
 10
1980.2772499762
 20
3900.8129402009
 30
0.0
 11
1947.2772576056
 21
3900.8129402009
 31
0.0
  0
LINE
  5
29F
330
1F
100
AcDbEntity
  8
0
  6
Continuous
 62
     7
370
    25
100
AcDbLine
 10
1947.2772576056
 20
3900.8129402009
 30
0.0
 11
1947.2772576056
 21
3892.3129602281
 31
0.0
  0
LINE
  5
2A0
330
1F
100
AcDbEntity
  8
0
  6
Continuous
 62
     7
370
    25
100
AcDbLine
 10
1947.2772576056
 20
3892.3129602281
 30
0.0
 11
1980.2772499762
 21
3892.3129602281
 31
0.0
  0
LINE
  5
2A1
330
1F
100
AcDbEntity
  8
0
  6
Continuous
 62
     7
370
    25
100
AcDbLine
 10
3628.2772518836
 20
3900.8129402009
 30
0.0
 11
3598.2772208892
 21
3900.8129402009
 31
0.0
  0
LINE
  5
2A2
330
1F
100
AcDbEntity
  8
0
  6
Continuous
 62
     7
370
    25
100
AcDbLine
 10
3598.2772208892
 20
3900.8129402009
 30
0.0
 11
3598.2772208892
 21
3892.3129602281
 31
0.0
  0
LINE
  5
2A3
330
1F
100
AcDbEntity
  8
0
  6
Continuous
 62
     7
370
    25
100
AcDbLine
 10
3598.2772208892
 20
3892.3129602281
 30
0.0
 11
3628.2772518836
 21
3892.3129602281
 31
0.0
  0
LINE
  5
2A4
330
1F
100
AcDbEntity
  8
0
  6
Continuous
 62
     7
370
    25
100
AcDbLine
 10
3628.2772518836
 20
3892.3129602281
 30
0.0
 11
3628.2772518836
 21
3900.8129402009
 31
0.0
  0
LINE
  5
2A5
330
1F
100
AcDbEntity
  8
0
  6
Continuous
 62
     7
370
    25
100
AcDbLine
 10
1857.277224227
 20
3900.8129402009
 30
0.0
 11
1857.277224227
 21
3892.3129602281
 31
0.0
  0
LINE
  5
2A6
330
1F
100
AcDbEntity
  8
0
  6
Continuous
 62
     7
370
    25
100
AcDbLine
 10
1857.277224227
 20
3892.3129602281
 30
0.0
 11
1887.2772552214
 21
3892.3129602281
 31
0.0
  0
LINE
  5
2A7
330
1F
100
AcDbEntity
  8
0
  6
Continuous
 62
     7
370
    25
100
AcDbLine
 10
1887.2772552214
 20
3892.3129602281
 30
0.0
 11
1887.2772552214
 21
3900.8129402009
 31
0.0
  0
LINE
  5
2A8
330
1F
100
AcDbEntity
  8
0
  6
Continuous
 62
     7
370
    25
100
AcDbLine
 10
1887.2772552214
 20
3900.8129402009
 30
0.0
 11
1857.277224227
 21
3900.8129402009
 31
0.0
  0
LINE
  5
2A9
330
1F
100
AcDbEntity
  8
0
  6
Continuous
 62
     7
370
    25
100
AcDbLine
 10
2066.2772156439
 20
3892.3129602281
 30
0.0
 11
2066.2772156439
 21
3900.8129402009
 31
0.0
  0
LINE
  5
2AA
330
1F
100
AcDbEntity
  8
0
  6
Continuous
 62
     7
370
    25
100
AcDbLine
 10
2066.2772156439
 20
3900.8129402009
 30
0.0
 11
2036.2772442542
 21
3900.8129402009
 31
0.0
  0
LINE
  5
2AB
330
1F
100
AcDbEntity
  8
0
  6
Continuous
 62
     7
370
    25
100
AcDbLine
 10
2036.2772442542
 20
3900.8129402009
 30
0.0
 11
2036.2772442542
 21
3892.3129602281
 31
0.0
  0
LINE
  5
2AC
330
1F
100
AcDbEntity
  8
0
  6
Continuous
 62
     7
370
    25
100
AcDbLine
 10
2036.2772442542
 20
3892.3129602281
 30
0.0
 11
2066.2772156439
 21
3892.3129602281
 31
0.0
  0
LINE
  5
2AD
330
1F
100
AcDbEntity
  8
0
  6
Continuous
 62
     7
370
    25
100
AcDbLine
 10
3431.2772251807
 20
3900.8129402009
 30
0.0
 11
3405.2772022925
 21
3900.8129402009
 31
0.0
  0
LINE
  5
2AE
330
1F
100
AcDbEntity
  8
0
  6
Continuous
 62
     7
370
    25
100
AcDbLine
 10
3405.2772022925
 20
3900.8129402009
 30
0.0
 11
3405.2772022925
 21
3892.3129602281
 31
0.0
  0
LINE
  5
2AF
330
1F
100
AcDbEntity
  8
0
  6
Continuous
 62
     7
370
    25
100
AcDbLine
 10
3405.2772022925
 20
3892.3129602281
 30
0.0
 11
3431.2772251807
 21
3892.3129602281
 31
0.0
  0
LINE
  5
2B0
330
1F
100
AcDbEntity
  8
0
  6
Continuous
 62
     7
370
    25
100
AcDbLine
 10
3431.2772251807
 20
3892.3129602281
 30
0.0
 11
3431.2772251807
 21
3900.8129402009
 31
0.0
  0
LINE
  5
2B1
330
1F
100
AcDbEntity
  8
0
  6
Continuous
 62
     7
370
    25
100
AcDbLine
 10
3709.2772223197
 20
3900.8129402009
 30
0.0
 11
3651.2772537909
 21
3900.8129402009
 31
0.0
  0
LINE
  5
2B2
330
1F
100
AcDbEntity
  8
0
  6
Continuous
 62
     7
370
    25
100
AcDbLine
 10
3651.2772537909
 20
3900.8129402009
 30
0.0
 11
3651.2772537909
 21
3892.3129602281
 31
0.0
  0
LINE
  5
2B3
330
1F
100
AcDbEntity
  8
0
  6
Continuous
 62
     7
370
    25
100
AcDbLine
 10
3651.2772537909
 20
3892.3129602281
 30
0.0
 11
3709.2772223197
 21
3892.3129602281
 31
0.0
  0
LINE
  5
2B4
330
1F
100
AcDbEntity
  8
0
  6
Continuous
 62
     7
370
    25
100
AcDbLine
 10
3709.2772223197
 20
3892.3129602281
 30
0.0
 11
3709.2772223197
 21
3900.8129402009
 31
0.0
  0
LINE
  5
2B5
330
1F
100
AcDbEntity
  8
0
  6
Continuous
 62
     7
370
    25
100
AcDbLine
 10
1798.2772089682
 20
3900.8129402009
 30
0.0
 11
1798.2772089682
 21
3892.3129602281
 31
0.0
  0
LINE
  5
2B6
330
1F
100
AcDbEntity
  8
0
  6
Continuous
 62
     7
370
    25
100
AcDbLine
 10
1798.2772089682
 20
3892.3129602281
 30
0.0
 11
1828.2772399626
 21
3892.3129602281
 31
0.0
  0
LINE
  5
2B7
330
1F
100
AcDbEntity
  8
0
  6
Continuous
 62
     7
370
    25
100
AcDbLine
 10
1828.2772399626
 20
3892.3129602281
 30
0.0
 11
1828.2772399626
 21
3900.8129402009
 31
0.0
  0
LINE
  5
2B8
330
1F
100
AcDbEntity
  8
0
  6
Continuous
 62
     7
370
    25
100
AcDbLine
 10
1828.2772399626
 20
3900.8129402009
 30
0.0
 11
1798.2772089682
 21
3900.8129402009
 31
0.0
  0
LINE
  5
2B9
330
1F
100
AcDbEntity
  8
0
  6
Continuous
 62
     7
370
    25
100
AcDbLine
 10
3716.2772514067
 20
3883.8129802552
 30
0.0
 11
3716.2772514067
 21
3909.8128839341
 31
0.0
  0
LINE
  5
2BA
330
1F
100
AcDbEntity
  8
0
  6
Continuous
 62
     7
370
    25
100
AcDbLine
 10
1710.2772094451
 20
3909.8128839341
 30
0.0
 11
1710.2772094451
 21
3883.8129802552
 31
0.0
  0
LINE
  5
2BB
330
1F
100
AcDbEntity
  8
0
  6
Continuous
 62
     8
370
    25
100
AcDbLine
 10
4725.2773143492
 20
1892.062935507
 30
0.0
 11
4725.2773143492
 21
1903.8129353375
 31
0.0
  0
LINE
  5
2BC
330
1F
100
AcDbEntity
  8
0
  6
Continuous
 62
     8
370
    25
100
AcDbLine
 10
4725.2773143492
 20
1916.8129353729
 30
0.0
 11
4725.2773143492
 21
1925.3129358349
 31
0.0
  0
LINE
  5
2BD
330
1F
100
AcDbEntity
  8
0
  6
Continuous
 62
     8
370
    25
100
AcDbLine
 10
4725.2773143492
 20
1947.8129348663
 30
0.0
 11
4725.2773143492
 21
3869.8129220811
 31
0.0
  0
LINE
  5
2BE
330
1F
100
AcDbEntity
  8
0
  6
Continuous
 62
     8
370
    25
100
AcDbLine
 10
4725.2773143492
 20
3892.3129602281
 30
0.0
 11
4725.2773143492
 21
3900.8129402009
 31
0.0
  0
LINE
  5
2BF
330
1F
100
AcDbEntity
  8
0
  6
Continuous
 62
     8
370
    25
100
AcDbLine
 10
4725.2773143492
 20
3913.8128324357
 30
0.0
 11
4725.2773143492
 21
3952.0630403367
 31
0.0
  0
LINE
  5
2C0
330
1F
100
AcDbEntity
  8
0
  6
Continuous
 62
     8
370
    25
100
AcDbLine
 10
4701.2772657118
 20
1892.062935507
 30
0.0
 11
4701.2772657118
 21
1903.8129353375
 31
0.0
  0
LINE
  5
2C1
330
1F
100
AcDbEntity
  8
0
  6
Continuous
 62
     8
370
    25
100
AcDbLine
 10
4701.2772657118
 20
1947.8129348663
 30
0.0
 11
4701.2772657118
 21
3869.8129220811
 31
0.0
  0
LINE
  5
2C2
330
1F
100
AcDbEntity
  8
0
  6
Continuous
 62
     8
370
    25
100
AcDbLine
 10
4701.2772657118
 20
3913.8128324357
 30
0.0
 11
4701.2772657118
 21
3952.0630403367
 31
0.0
  0
LINE
  5
2C3
330
1F
100
AcDbEntity
  8
0
  6
Continuous
 62
     8
370
    25
100
AcDbLine
 10
4755.277285739
 20
1892.062935507
 30
0.0
 11
4755.277285739
 21
1903.8129353375
 31
0.0
  0
LINE
  5
2C4
330
1F
100
AcDbEntity
  8
0
  6
Continuous
 62
     8
370
    25
100
AcDbLine
 10
4755.277285739
 20
1947.8129348663
 30
0.0
 11
4755.277285739
 21
3869.8129220811
 31
0.0
  0
LINE
  5
2C5
330
1F
100
AcDbEntity
  8
0
  6
Continuous
 62
     8
370
    25
100
AcDbLine
 10
4755.277285739
 20
3913.8128324357
 30
0.0
 11
4755.277285739
 21
3952.0630403367
 31
0.0
  0
LINE
  5
2C6
330
1F
100
AcDbEntity
  8
0
  6
Continuous
 62
     8
370
    25
100
AcDbLine
 10
3975.2771951399
 20
1892.062935507
 30
0.0
 11
3975.2771951399
 21
1903.8129353375
 31
0.0
  0
LINE
  5
2C7
330
1F
100
AcDbEntity
  8
0
  6
Continuous
 62
     8
370
    25
100
AcDbLine
 10
3975.2771951399
 20
1947.8129348663
 30
0.0
 11
3975.2771951399
 21
3869.8129220811
 31
0.0
  0
LINE
  5
2C8
330
1F
100
AcDbEntity
  8
0
  6
Continuous
 62
     8
370
    25
100
AcDbLine
 10
3975.2771951399
 20
3913.8128324357
 30
0.0
 11
3975.2771951399
 21
3952.0630403367
 31
0.0
  0
LINE
  5
2C9
330
1F
100
AcDbEntity
  8
0
  6
Continuous
 62
     8
370
    25
100
AcDbLine
 10
3951.2772657118
 20
1892.062935507
 30
0.0
 11
3951.2772657118
 21
1903.8129353375
 31
0.0
  0
LINE
  5
2CA
330
1F
100
AcDbEntity
  8
0
  6
Continuous
 62
     8
370
    25
100
AcDbLine
 10
3951.2772657118
 20
1916.8129353729
 30
0.0
 11
3951.2772657118
 21
1925.3129358349
 31
0.0
  0
LINE
  5
2CB
330
1F
100
AcDbEntity
  8
0
  6
Continuous
 62
     8
370
    25
100
AcDbLine
 10
3951.2772657118
 20
1947.8129348663
 30
0.0
 11
3951.2772657118
 21
3869.8129220811
 31
0.0
  0
LINE
  5
2CC
330
1F
100
AcDbEntity
  8
0
  6
Continuous
 62
     8
370
    25
100
AcDbLine
 10
3951.2772657118
 20
3892.3129602281
 30
0.0
 11
3951.2772657118
 21
3900.8129402009
 31
0.0
  0
LINE
  5
2CD
330
1F
100
AcDbEntity
  8
0
  6
Continuous
 62
     8
370
    25
100
AcDbLine
 10
3951.2772657118
 20
3913.8128324357
 30
0.0
 11
3951.2772657118
 21
3952.0630403367
 31
0.0
  0
LINE
  5
2CE
330
1F
100
AcDbEntity
  8
0
  6
Continuous
 62
     8
370
    25
100
AcDbLine
 10
4005.277285739
 20
1892.062935507
 30
0.0
 11
4005.277285739
 21
1903.8129353375
 31
0.0
  0
LINE
  5
2CF
330
1F
100
AcDbEntity
  8
0
  6
Continuous
 62
     8
370
    25
100
AcDbLine
 10
4005.277285739
 20
1916.8129353729
 30
0.0
 11
4005.277285739
 21
1925.3129358349
 31
0.0
  0
LINE
  5
2D0
330
1F
100
AcDbEntity
  8
0
  6
Continuous
 62
     8
370
    25
100
AcDbLine
 10
4005.277285739
 20
1947.8129348663
 30
0.0
 11
4005.277285739
 21
3869.8129220811
 31
0.0
  0
LINE
  5
2D1
330
1F
100
AcDbEntity
  8
0
  6
Continuous
 62
     8
370
    25
100
AcDbLine
 10
4005.277285739
 20
3892.3129602281
 30
0.0
 11
4005.277285739
 21
3900.8129402009
 31
0.0
  0
LINE
  5
2D2
330
1F
100
AcDbEntity
  8
0
  6
Continuous
 62
     8
370
    25
100
AcDbLine
 10
4005.277285739
 20
3913.8128324357
 30
0.0
 11
4005.277285739
 21
3952.0630403367
 31
0.0
  0
LINE
  5
2D3
330
1F
100
AcDbEntity
  8
0
  6
Continuous
 62
     8
370
    25
100
AcDbLine
 10
3475.2772547446
 20
1892.062935507
 30
0.0
 11
3475.2772547446
 21
1903.8129353375
 31
0.0
  0
LINE
  5
2D4
330
1F
100
AcDbEntity
  8
0
  6
Continuous
 62
     8
370
    25
100
AcDbLine
 10
3475.2772547446
 20
1916.8129353729
 30
0.0
 11
3475.2772547446
 21
1925.3129358349
 31
0.0
  0
LINE
  5
2D5
330
1F
100
AcDbEntity
  8
0
  6
Continuous
 62
     8
370
    25
100
AcDbLine
 10
3475.2772547446
 20
1947.8129348663
 30
0.0
 11
3475.2772547446
 21
3869.8129220811
 31
0.0
  0
LINE
  5
2D6
330
1F
100
AcDbEntity
  8
0
  6
Continuous
 62
     8
370
    25
100
AcDbLine
 10
3475.2772547446
 20
3892.3129602281
 30
0.0
 11
3475.2772547446
 21
3900.8129402009
 31
0.0
  0
LINE
  5
2D7
330
1F
100
AcDbEntity
  8
0
  6
Continuous
 62
     8
370
    25
100
AcDbLine
 10
3475.2772547446
 20
3913.8128324357
 30
0.0
 11
3475.2772547446
 21
3952.0630403367
 31
0.0
  0
LINE
  5
2D8
330
1F
100
AcDbEntity
  8
0
  6
Continuous
 62
     8
370
    25
100
AcDbLine
 10
3451.2772061072
 20
1892.062935507
 30
0.0
 11
3451.2772061072
 21
1903.8129353375
 31
0.0
  0
LINE
  5
2D9
330
1F
100
AcDbEntity
  8
0
  6
Continuous
 62
     8
370
    25
100
AcDbLine
 10
3451.2772061072
 20
1916.8129353729
 30
0.0
 11
3451.2772061072
 21
1925.3129358349
 31
0.0
  0
LINE
  5
2DA
330
1F
100
AcDbEntity
  8
0
  6
Continuous
 62
     8
370
    25
100
AcDbLine
 10
3451.2772061072
 20
1947.8129348663
 30
0.0
 11
3451.2772061072
 21
3869.8129220811
 31
0.0
  0
LINE
  5
2DB
330
1F
100
AcDbEntity
  8
0
  6
Continuous
 62
     8
370
    25
100
AcDbLine
 10
3451.2772061072
 20
3892.3129602281
 30
0.0
 11
3451.2772061072
 21
3900.8129402009
 31
0.0
  0
LINE
  5
2DC
330
1F
100
AcDbEntity
  8
0
  6
Continuous
 62
     8
370
    25
100
AcDbLine
 10
3451.2772061072
 20
3913.8128324357
 30
0.0
 11
3451.2772061072
 21
3952.0630403367
 31
0.0
  0
LINE
  5
2DD
330
1F
100
AcDbEntity
  8
0
  6
Continuous
 62
     8
370
    25
100
AcDbLine
 10
3505.2772261344
 20
1892.062935507
 30
0.0
 11
3505.2772261344
 21
1903.8129353375
 31
0.0
  0
LINE
  5
2DE
330
1F
100
AcDbEntity
  8
0
  6
Continuous
 62
     8
370
    25
100
AcDbLine
 10
3505.2772261344
 20
1947.8129348663
 30
0.0
 11
3505.2772261344
 21
3869.8129220811
 31
0.0
  0
LINE
  5
2DF
330
1F
100
AcDbEntity
  8
0
  6
Continuous
 62
     8
370
    25
100
AcDbLine
 10
3505.2772261344
 20
3913.8128324357
 30
0.0
 11
3505.2772261344
 21
3952.0630403367
 31
0.0
  0
LINE
  5
2E0
330
1F
100
AcDbEntity
  8
0
  6
Continuous
 62
     8
370
    25
100
AcDbLine
 10
1975.2772547446
 20
1892.062935507
 30
0.0
 11
1975.2772547446
 21
1903.8129353375
 31
0.0
  0
LINE
  5
2E1
330
1F
100
AcDbEntity
  8
0
  6
Continuous
 62
     8
370
    25
100
AcDbLine
 10
1975.2772547446
 20
1916.8129353729
 30
0.0
 11
1975.2772547446
 21
1925.3129358349
 31
0.0
  0
LINE
  5
2E2
330
1F
100
AcDbEntity
  8
0
  6
Continuous
 62
     8
370
    25
100
AcDbLine
 10
1975.2772547446
 20
1947.8129348663
 30
0.0
 11
1975.2772547446
 21
3869.8129220811
 31
0.0
  0
LINE
  5
2E3
330
1F
100
AcDbEntity
  8
0
  6
Continuous
 62
     8
370
    25
100
AcDbLine
 10
1975.2772547446
 20
3892.3129602281
 30
0.0
 11
1975.2772547446
 21
3900.8129402009
 31
0.0
  0
LINE
  5
2E4
330
1F
100
AcDbEntity
  8
0
  6
Continuous
 62
     8
370
    25
100
AcDbLine
 10
1975.2772547446
 20
3913.8128324357
 30
0.0
 11
1975.2772547446
 21
3952.0630403367
 31
0.0
  0
LINE
  5
2E5
330
1F
100
AcDbEntity
  8
0
  6
Continuous
 62
     8
370
    25
100
AcDbLine
 10
1951.2772061072
 20
1892.062935507
 30
0.0
 11
1951.2772061072
 21
1903.8129353375
 31
0.0
  0
LINE
  5
2E6
330
1F
100
AcDbEntity
  8
0
  6
Continuous
 62
     8
370
    25
100
AcDbLine
 10
1951.2772061072
 20
1916.8129353729
 30
0.0
 11
1951.2772061072
 21
1925.3129358349
 31
0.0
  0
LINE
  5
2E7
330
1F
100
AcDbEntity
  8
0
  6
Continuous
 62
     8
370
    25
100
AcDbLine
 10
1951.2772061072
 20
1947.8129348663
 30
0.0
 11
1951.2772061072
 21
3869.8129220811
 31
0.0
  0
LINE
  5
2E8
330
1F
100
AcDbEntity
  8
0
  6
Continuous
 62
     8
370
    25
100
AcDbLine
 10
1951.2772061072
 20
3892.3129602281
 30
0.0
 11
1951.2772061072
 21
3900.8129402009
 31
0.0
  0
LINE
  5
2E9
330
1F
100
AcDbEntity
  8
0
  6
Continuous
 62
     8
370
    25
100
AcDbLine
 10
1951.2772061072
 20
3913.8128324357
 30
0.0
 11
1951.2772061072
 21
3952.0630403367
 31
0.0
  0
LINE
  5
2EA
330
1F
100
AcDbEntity
  8
0
  6
Continuous
 62
     8
370
    25
100
AcDbLine
 10
2005.2772261344
 20
1892.062935507
 30
0.0
 11
2005.2772261344
 21
1903.8129353375
 31
0.0
  0
LINE
  5
2EB
330
1F
100
AcDbEntity
  8
0
  6
Continuous
 62
     8
370
    25
100
AcDbLine
 10
2005.2772261344
 20
1916.8129353729
 30
0.0
 11
2005.2772261344
 21
1925.3129358349
 31
0.0
  0
LINE
  5
2EC
330
1F
100
AcDbEntity
  8
0
  6
Continuous
 62
     8
370
    25
100
AcDbLine
 10
2005.2772261344
 20
1947.8129348663
 30
0.0
 11
2005.2772261344
 21
3869.8129220811
 31
0.0
  0
LINE
  5
2ED
330
1F
100
AcDbEntity
  8
0
  6
Continuous
 62
     8
370
    25
100
AcDbLine
 10
2005.2772261344
 20
3892.3129602281
 30
0.0
 11
2005.2772261344
 21
3900.8129402009
 31
0.0
  0
LINE
  5
2EE
330
1F
100
AcDbEntity
  8
0
  6
Continuous
 62
     8
370
    25
100
AcDbLine
 10
2005.2772261344
 20
3913.8128324357
 30
0.0
 11
2005.2772261344
 21
3952.0630403367
 31
0.0
  0
DIMENSION
  5
2EF
330
1F
100
AcDbEntity
  8
0
  6
Continuous
 62
    27
370
    18
100
AcDbDimension
  2
_D
 10
4843.2772304259
 20
1726.7635912882
 30
0.0
 11
3210.7660662677
 21
1726.7635912882
 31
0.0
 70
   160
  1
(<>)
 71
     2
 42
-1.0
  3
SLDDIMSTYLE0
100
AcDbAlignedDimension
 13
1710.2772304259
 23
1903.8129354325
 33
0.0
 14
4843.2772304259
 24
1907.8129354325
 34
0.0
100
AcDbRotatedDimension
  0
LINE
  5
2FC
330
1F
100
AcDbEntity
  8
0
  6
Continuous
 62
     7
370
    25
100
AcDbLine
 10
1610.2771856032
 20
4414.5385726437
 30
0.0
 11
1610.2771856032
 21
4415.2885778889
 31
0.0
  0
ARC
  5
2FD
330
1F
100
AcDbEntity
  8
0
  6
Continuous
 62
     7
370
    25
100
AcDbCircle
 10
1723.4241594385
 20
4454.2885731205
 30
0.0
 40
1.000000000000356
100
AcDbArc
 50
90.0
 51
155.8
  0
LINE
  5
2FE
330
1F
100
AcDbEntity
  8
0
  6
Continuous
 62
     7
370
    25
100
AcDbLine
 10
1723.4241463385
 20
4455.2885695443
 30
0.0
 11
1747.1302844725
 21
4455.2885695443
 31
0.0
  0
ARC
  5
2FF
330
1F
100
AcDbEntity
  8
0
  6
Continuous
 62
     7
370
    25
100
AcDbCircle
 10
1747.1303014133
 20
4454.2885731205
 30
0.0
 40
1.0
100
AcDbArc
 50
24.2
 51
90.0
  0
ARC
  5
300
330
1F
100
AcDbEntity
  8
0
  6
Continuous
 62
     7
370
    25
100
AcDbCircle
 10
1973.4241594385
 20
4454.2885731205
 30
0.0
 40
1.000000000000356
100
AcDbArc
 50
90.0
 51
155.8
  0
LINE
  5
301
330
1F
100
AcDbEntity
  8
0
  6
Continuous
 62
     7
370
    25
100
AcDbLine
 10
1973.4241463385
 20
4455.2885695443
 30
0.0
 11
1997.1302844725
 21
4455.2885695443
 31
0.0
  0
ARC
  5
302
330
1F
100
AcDbEntity
  8
0
  6
Continuous
 62
     7
370
    25
100
AcDbCircle
 10
1997.1303014133
 20
4454.2885731205
 30
0.0
 40
1.0
100
AcDbArc
 50
24.2
 51
90.0
  0
ARC
  5
303
330
1F
100
AcDbEntity
  8
0
  6
Continuous
 62
     7
370
    25
100
AcDbCircle
 10
2223.4241594385
 20
4454.2885731205
 30
0.0
 40
1.000000000000563
100
AcDbArc
 50
90.0
 51
155.8
  0
LINE
  5
304
330
1F
100
AcDbEntity
  8
0
  6
Continuous
 62
     7
370
    25
100
AcDbLine
 10
2223.4241463385
 20
4455.2885695443
 30
0.0
 11
2247.1303142748
 21
4455.2885695443
 31
0.0
  0
ARC
  5
305
330
1F
100
AcDbEntity
  8
0
  6
Continuous
 62
     7
370
    25
100
AcDbCircle
 10
2247.1303014133
 20
4454.2885731205
 30
0.0
 40
1.0
100
AcDbArc
 50
24.2
 51
90.0
  0
ARC
  5
306
330
1F
100
AcDbEntity
  8
0
  6
Continuous
 62
     7
370
    25
100
AcDbCircle
 10
2473.4241594385
 20
4454.2885731205
 30
0.0
 40
1.000000000000149
100
AcDbArc
 50
90.0
 51
155.8
  0
LINE
  5
307
330
1F
100
AcDbEntity
  8
0
  6
Continuous
 62
     7
370
    25
100
AcDbLine
 10
2473.4241612397
 20
4455.2885695443
 30
0.0
 11
2497.1302993737
 21
4455.2885695443
 31
0.0
  0
ARC
  5
308
330
1F
100
AcDbEntity
  8
0
  6
Continuous
 62
     7
370
    25
100
AcDbCircle
 10
2497.1303014133
 20
4454.2885731205
 30
0.0
 40
1.0
100
AcDbArc
 50
24.2
 51
90.0
  0
ARC
  5
309
330
1F
100
AcDbEntity
  8
0
  6
Continuous
 62
     7
370
    25
100
AcDbCircle
 10
2723.4241594385
 20
4454.2885731205
 30
0.0
 40
1.0
100
AcDbArc
 50
90.0
 51
155.8
  0
LINE
  5
30A
330
1F
100
AcDbEntity
  8
0
  6
Continuous
 62
     7
370
    25
100
AcDbLine
 10
2723.424159377
 20
4455.2885695443
 30
0.0
 11
2747.130303099
 21
4455.2885695443
 31
0.0
  0
ARC
  5
30B
330
1F
100
AcDbEntity
  8
0
  6
Continuous
 62
     7
370
    25
100
AcDbCircle
 10
2747.1303014133
 20
4454.2885731205
 30
0.0
 40
1.000000000000149
100
AcDbArc
 50
24.2
 51
90.0
  0
ARC
  5
30C
330
1F
100
AcDbEntity
  8
0
  6
Continuous
 62
     7
370
    25
100
AcDbCircle
 10
2973.4241594385
 20
4454.2885731205
 30
0.0
 40
1.000000000000563
100
AcDbArc
 50
90.0
 51
155.8
  0
LINE
  5
30D
330
1F
100
AcDbEntity
  8
0
  6
Continuous
 62
     7
370
    25
100
AcDbLine
 10
2973.4241463385
 20
4455.2885695443
 30
0.0
 11
2997.1303142748
 21
4455.2885695443
 31
0.0
  0
ARC
  5
30E
330
1F
100
AcDbEntity
  8
0
  6
Continuous
 62
     7
370
    25
100
AcDbCircle
 10
2997.1303014133
 20
4454.2885731205
 30
0.0
 40
1.000000000000149
100
AcDbArc
 50
24.2
 51
90.0
  0
ARC
  5
30F
330
1F
100
AcDbEntity
  8
0
  6
Continuous
 62
     7
370
    25
100
AcDbCircle
 10
3223.4241594385
 20
4454.2885731205
 30
0.0
 40
1.0
100
AcDbArc
 50
90.0
 51
155.8
  0
LINE
  5
310
330
1F
100
AcDbEntity
  8
0
  6
Continuous
 62
     7
370
    25
100
AcDbLine
 10
3223.4241463385
 20
4455.2885695443
 30
0.0
 11
3247.1302844725
 21
4455.2885695443
 31
0.0
  0
ARC
  5
311
330
1F
100
AcDbEntity
  8
0
  6
Continuous
 62
     7
370
    25
100
AcDbCircle
 10
3247.1303014133
 20
4454.2885731205
 30
0.0
 40
1.000000000000149
100
AcDbArc
 50
24.2
 51
90.0
  0
ARC
  5
312
330
1F
100
AcDbEntity
  8
0
  6
Continuous
 62
     7
370
    25
100
AcDbCircle
 10
3473.4241594385
 20
4454.2885731205
 30
0.0
 40
1.000000000000563
100
AcDbArc
 50
90.0
 51
155.8
  0
LINE
  5
313
330
1F
100
AcDbEntity
  8
0
  6
Continuous
 62
     7
370
    25
100
AcDbLine
 10
3473.4241463385
 20
4455.2885695443
 30
0.0
 11
3497.1302844725
 21
4455.2885695443
 31
0.0
  0
ARC
  5
314
330
1F
100
AcDbEntity
  8
0
  6
Continuous
 62
     7
370
    25
100
AcDbCircle
 10
3497.1303014133
 20
4454.2885731205
 30
0.0
 40
1.0
100
AcDbArc
 50
24.2
 51
90.0
  0
ARC
  5
315
330
1F
100
AcDbEntity
  8
0
  6
Continuous
 62
     7
370
    25
100
AcDbCircle
 10
3723.4241594385
 20
4454.2885731205
 30
0.0
 40
1.0
100
AcDbArc
 50
90.0
 51
155.8
  0
LINE
  5
316
330
1F
100
AcDbEntity
  8
0
  6
Continuous
 62
     7
370
    25
100
AcDbLine
 10
3723.4242059432
 20
4455.2885695443
 30
0.0
 11
3747.1302844725
 21
4455.2885695443
 31
0.0
  0
ARC
  5
317
330
1F
100
AcDbEntity
  8
0
  6
Continuous
 62
     7
370
    25
100
AcDbCircle
 10
3747.1303014133
 20
4454.2885731205
 30
0.0
 40
1.000000000000149
100
AcDbArc
 50
24.2
 51
90.0
  0
ARC
  5
318
330
1F
100
AcDbEntity
  8
0
  6
Continuous
 62
     7
370
    25
100
AcDbCircle
 10
3973.4241594385
 20
4454.2885731205
 30
0.0
 40
1.0
100
AcDbArc
 50
90.0
 51
155.8
  0
LINE
  5
319
330
1F
100
AcDbEntity
  8
0
  6
Continuous
 62
     7
370
    25
100
AcDbLine
 10
3973.4242059432
 20
4455.2885695443
 30
0.0
 11
3997.1302844725
 21
4455.2885695443
 31
0.0
  0
ARC
  5
31A
330
1F
100
AcDbEntity
  8
0
  6
Continuous
 62
     7
370
    25
100
AcDbCircle
 10
3997.1303014133
 20
4454.2885731205
 30
0.0
 40
1.0
100
AcDbArc
 50
24.2
 51
90.0
  0
ARC
  5
31B
330
1F
100
AcDbEntity
  8
0
  6
Continuous
 62
     7
370
    25
100
AcDbCircle
 10
4223.4241594385
 20
4454.2885731205
 30
0.0
 40
1.000000000000149
100
AcDbArc
 50
90.0
 51
155.8
  0
LINE
  5
31C
330
1F
100
AcDbEntity
  8
0
  6
Continuous
 62
     7
370
    25
100
AcDbLine
 10
4223.4242059432
 20
4455.2885695443
 30
0.0
 11
4247.1302844725
 21
4455.2885695443
 31
0.0
  0
ARC
  5
31D
330
1F
100
AcDbEntity
  8
0
  6
Continuous
 62
     7
370
    25
100
AcDbCircle
 10
4247.1303014133
 20
4454.2885731205
 30
0.0
 40
1.0
100
AcDbArc
 50
24.2
 51
90.0
  0
ARC
  5
31E
330
1F
100
AcDbEntity
  8
0
  6
Continuous
 62
     7
370
    25
100
AcDbCircle
 10
4473.4241594385
 20
4454.2885731205
 30
0.0
 40
1.000000000000149
100
AcDbArc
 50
90.0
 51
155.8
  0
LINE
  5
31F
330
1F
100
AcDbEntity
  8
0
  6
Continuous
 62
     7
370
    25
100
AcDbLine
 10
4473.4242059432
 20
4455.2885695443
 30
0.0
 11
4497.1302844725
 21
4455.2885695443
 31
0.0
  0
ARC
  5
320
330
1F
100
AcDbEntity
  8
0
  6
Continuous
 62
     7
370
    25
100
AcDbCircle
 10
4497.1303014133
 20
4454.2885731205
 30
0.0
 40
1.000000000000149
100
AcDbArc
 50
24.2
 51
90.0
  0
ARC
  5
321
330
1F
100
AcDbEntity
  8
0
  6
Continuous
 62
     7
370
    25
100
AcDbCircle
 10
4723.4241594385
 20
4454.2885731205
 30
0.0
 40
1.000000000000149
100
AcDbArc
 50
90.0
 51
155.8
  0
LINE
  5
322
330
1F
100
AcDbEntity
  8
0
  6
Continuous
 62
     7
370
    25
100
AcDbLine
 10
4723.4240867339
 20
4455.2885695443
 30
0.0
 11
4747.1302844725
 21
4455.2885695443
 31
0.0
  0
ARC
  5
323
330
1F
100
AcDbEntity
  8
0
  6
Continuous
 62
     7
370
    25
100
AcDbCircle
 10
4747.1303014133
 20
4454.2885731205
 30
0.0
 40
1.0
100
AcDbArc
 50
24.2
 51
90.0
  0
LINE
  5
324
330
1F
100
AcDbEntity
  8
0
  6
Continuous
 62
     7
370
    25
100
AcDbLine
 10
4943.2772494994
 20
4414.5385726437
 30
0.0
 11
4766.4009429656
 21
4414.5385726437
 31
0.0
  0
ARC
  5
325
330
1F
100
AcDbEntity
  8
0
  6
Continuous
 62
     7
370
    25
100
AcDbCircle
 10
4747.1303014133
 20
4454.2885731205
 30
0.0
 40
0.25
100
AcDbArc
 50
24.2
 51
90.0
  0
LINE
  5
326
330
1F
100
AcDbEntity
  8
0
  6
Continuous
 62
     7
370
    25
100
AcDbLine
 10
4747.1302844725
 20
4454.5385717496
 30
0.0
 11
4723.4240867339
 21
4454.5385717496
 31
0.0
  0
ARC
  5
327
330
1F
100
AcDbEntity
  8
0
  6
Continuous
 62
     7
370
    25
100
AcDbCircle
 10
4723.4241594385
 20
4454.2885731205
 30
0.0
 40
0.2500000000006803
100
AcDbArc
 50
90.0
 51
155.8000000002
  0
ARC
  5
328
330
1F
100
AcDbEntity
  8
0
  6
Continuous
 62
     7
370
    25
100
AcDbCircle
 10
4704.1535886285
 20
4416.2885731205
 30
0.0
 40
1.750000000000447
100
AcDbArc
 50
270.0
 51
335.8
  0
LINE
  5
329
330
1F
100
AcDbEntity
  8
0
  6
Continuous
 62
     7
370
    25
100
AcDbLine
 10
4704.1535474501
 20
4414.5385726437
 30
0.0
 11
4516.4008237563
 21
4414.5385726437
 31
0.0
  0
ARC
  5
32A
330
1F
100
AcDbEntity
  8
0
  6
Continuous
 62
     7
370
    25
100
AcDbCircle
 10
4497.1303014133
 20
4454.2885731205
 30
0.0
 40
0.25
100
AcDbArc
 50
24.1999999999
 51
90.0
  0
LINE
  5
32B
330
1F
100
AcDbEntity
  8
0
  6
Continuous
 62
     7
370
    25
100
AcDbLine
 10
4497.1302844725
 20
4454.5385717496
 30
0.0
 11
4473.4242059432
 21
4454.5385717496
 31
0.0
  0
ARC
  5
32C
330
1F
100
AcDbEntity
  8
0
  6
Continuous
 62
     7
370
    25
100
AcDbCircle
 10
4473.4241594385
 20
4454.2885731205
 30
0.0
 40
0.25
100
AcDbArc
 50
90.0
 51
155.8000000001
  0
ARC
  5
32D
330
1F
100
AcDbEntity
  8
0
  6
Continuous
 62
     7
370
    25
100
AcDbCircle
 10
4454.1535886285
 20
4416.2885731205
 30
0.0
 40
1.750000000001276
100
AcDbArc
 50
270.0
 51
335.8
  0
LINE
  5
32E
330
1F
100
AcDbEntity
  8
0
  6
Continuous
 62
     7
370
    25
100
AcDbLine
 10
4454.1535474501
 20
4414.5385726437
 30
0.0
 11
4266.4008237563
 21
4414.5385726437
 31
0.0
  0
ARC
  5
32F
330
1F
100
AcDbEntity
  8
0
  6
Continuous
 62
     7
370
    25
100
AcDbCircle
 10
4266.4008722233
 20
4416.2885731205
 30
0.0
 40
1.75
100
AcDbArc
 50
204.2
 51
270.0
  0
ARC
  5
330
330
1F
100
AcDbEntity
  8
0
  6
Continuous
 62
     7
370
    25
100
AcDbCircle
 10
4247.1303014133
 20
4454.2885731205
 30
0.0
 40
0.25
100
AcDbArc
 50
24.1999999999
 51
90.0
  0
LINE
  5
331
330
1F
100
AcDbEntity
  8
0
  6
Continuous
 62
     7
370
    25
100
AcDbLine
 10
4247.1302844725
 20
4454.5385717496
 30
0.0
 11
4223.4242059432
 21
4454.5385717496
 31
0.0
  0
ARC
  5
332
330
1F
100
AcDbEntity
  8
0
  6
Continuous
 62
     7
370
    25
100
AcDbCircle
 10
4223.4241594385
 20
4454.2885731205
 30
0.0
 40
0.2500000000006803
100
AcDbArc
 50
90.0
 51
155.8000000002
  0
ARC
  5
333
330
1F
100
AcDbEntity
  8
0
  6
Continuous
 62
     7
370
    25
100
AcDbCircle
 10
4204.1535886285
 20
4416.2885731205
 30
0.0
 40
1.75
100
AcDbArc
 50
270.0
 51
335.8
  0
LINE
  5
334
330
1F
100
AcDbEntity
  8
0
  6
Continuous
 62
     7
370
    25
100
AcDbLine
 10
4204.1535474501
 20
4414.5385726437
 30
0.0
 11
4016.4008237563
 21
4414.5385726437
 31
0.0
  0
ARC
  5
335
330
1F
100
AcDbEntity
  8
0
  6
Continuous
 62
     7
370
    25
100
AcDbCircle
 10
4016.4008722233
 20
4416.2885731205
 30
0.0
 40
1.750000000000447
100
AcDbArc
 50
204.2
 51
270.0
  0
ARC
  5
336
330
1F
100
AcDbEntity
  8
0
  6
Continuous
 62
     7
370
    25
100
AcDbCircle
 10
3997.1303014133
 20
4454.2885731205
 30
0.0
 40
0.25
100
AcDbArc
 50
24.1999999999
 51
90.0
  0
LINE
  5
337
330
1F
100
AcDbEntity
  8
0
  6
Continuous
 62
     7
370
    25
100
AcDbLine
 10
3997.1302844725
 20
4454.5385717496
 30
0.0
 11
3973.4242059432
 21
4454.5385717496
 31
0.0
  0
ARC
  5
338
330
1F
100
AcDbEntity
  8
0
  6
Continuous
 62
     7
370
    25
100
AcDbCircle
 10
3973.4241594385
 20
4454.2885731205
 30
0.0
 40
0.25
100
AcDbArc
 50
90.0
 51
155.8000000001
  0
ARC
  5
339
330
1F
100
AcDbEntity
  8
0
  6
Continuous
 62
     7
370
    25
100
AcDbCircle
 10
3954.1535886285
 20
4416.2885731205
 30
0.0
 40
1.750000000000447
100
AcDbArc
 50
270.0
 51
335.8
  0
LINE
  5
33A
330
1F
100
AcDbEntity
  8
0
  6
Continuous
 62
     7
370
    25
100
AcDbLine
 10
3954.1535474501
 20
4414.5385726437
 30
0.0
 11
3766.4008237563
 21
4414.5385726437
 31
0.0
  0
ARC
  5
33B
330
1F
100
AcDbEntity
  8
0
  6
Continuous
 62
     7
370
    25
100
AcDbCircle
 10
3766.4008722233
 20
4416.2885731205
 30
0.0
 40
1.75
100
AcDbArc
 50
204.2
 51
270.0
  0
ARC
  5
33C
330
1F
100
AcDbEntity
  8
0
  6
Continuous
 62
     7
370
    25
100
AcDbCircle
 10
3747.1303014133
 20
4454.2885731205
 30
0.0
 40
0.2500000000002655
100
AcDbArc
 50
24.1999999999
 51
90.0
  0
LINE
  5
33D
330
1F
100
AcDbEntity
  8
0
  6
Continuous
 62
     7
370
    25
100
AcDbLine
 10
3747.1302844725
 20
4454.5385717496
 30
0.0
 11
3723.4242059432
 21
4454.5385717496
 31
0.0
  0
ARC
  5
33E
330
1F
100
AcDbEntity
  8
0
  6
Continuous
 62
     7
370
    25
100
AcDbCircle
 10
3723.4241594385
 20
4454.2885731205
 30
0.0
 40
0.25
100
AcDbArc
 50
90.0
 51
155.8000000001
  0
LINE
  5
33F
330
1F
100
AcDbEntity
  8
0
  6
Continuous
 62
     7
370
    25
100
AcDbLine
 10
3723.1961585723
 20
4454.3910502538
 30
0.0
 11
3705.7498194419
 21
4415.5712082133
 31
0.0
  0
ARC
  5
340
330
1F
100
AcDbEntity
  8
0
  6
Continuous
 62
     7
370
    25
100
AcDbCircle
 10
3704.1535886285
 20
4416.2885731205
 30
0.0
 40
1.750000000000032
100
AcDbArc
 50
270.0
 51
335.8
  0
LINE
  5
341
330
1F
100
AcDbEntity
  8
0
  6
Continuous
 62
     7
370
    25
100
AcDbLine
 10
3704.1536070548
 20
4414.5385726437
 30
0.0
 11
3516.4008833609
 21
4414.5385726437
 31
0.0
  0
ARC
  5
342
330
1F
100
AcDbEntity
  8
0
  6
Continuous
 62
     7
370
    25
100
AcDbCircle
 10
3516.4008722233
 20
4416.2885731205
 30
0.0
 40
1.750000000000447
100
AcDbArc
 50
204.2
 51
270.0
  0
ARC
  5
343
330
1F
100
AcDbEntity
  8
0
  6
Continuous
 62
     7
370
    25
100
AcDbCircle
 10
3497.1303014133
 20
4454.2885731205
 30
0.0
 40
0.25
100
AcDbArc
 50
24.1999999999
 51
90.0
  0
LINE
  5
344
330
1F
100
AcDbEntity
  8
0
  6
Continuous
 62
     7
370
    25
100
AcDbLine
 10
3497.1302844725
 20
4454.5385717496
 30
0.0
 11
3473.4241463385
 21
4454.5385717496
 31
0.0
  0
ARC
  5
345
330
1F
100
AcDbEntity
  8
0
  6
Continuous
 62
     7
370
    25
100
AcDbCircle
 10
3473.4241594385
 20
4454.2885731205
 30
0.0
 40
0.25
100
AcDbArc
 50
90.0
 51
155.8000000001
  0
ARC
  5
346
330
1F
100
AcDbEntity
  8
0
  6
Continuous
 62
     7
370
    25
100
AcDbCircle
 10
3266.4008722233
 20
4416.2885731205
 30
0.0
 40
1.750000000000447
100
AcDbArc
 50
204.2
 51
270.0
  0
ARC
  5
347
330
1F
100
AcDbEntity
  8
0
  6
Continuous
 62
     7
370
    25
100
AcDbCircle
 10
3247.1303014133
 20
4454.2885731205
 30
0.0
 40
0.25
100
AcDbArc
 50
24.1999999999
 51
90.0
  0
LINE
  5
348
330
1F
100
AcDbEntity
  8
0
  6
Continuous
 62
     7
370
    25
100
AcDbLine
 10
3247.1302844725
 20
4454.5385717496
 30
0.0
 11
3223.4241463385
 21
4454.5385717496
 31
0.0
  0
ARC
  5
349
330
1F
100
AcDbEntity
  8
0
  6
Continuous
 62
     7
370
    25
100
AcDbCircle
 10
3223.4241594385
 20
4454.2885731205
 30
0.0
 40
0.25
100
AcDbArc
 50
90.0
 51
155.8000000001
  0
ARC
  5
34A
330
1F
100
AcDbEntity
  8
0
  6
Continuous
 62
     7
370
    25
100
AcDbCircle
 10
3016.4008722233
 20
4416.2885731205
 30
0.0
 40
1.750000000000032
100
AcDbArc
 50
204.2
 51
270.0
  0
ARC
  5
34B
330
1F
100
AcDbEntity
  8
0
  6
Continuous
 62
     7
370
    25
100
AcDbCircle
 10
2997.1303014133
 20
4454.2885731205
 30
0.0
 40
0.25
100
AcDbArc
 50
24.1999999999
 51
90.0
  0
LINE
  5
34C
330
1F
100
AcDbEntity
  8
0
  6
Continuous
 62
     7
370
    25
100
AcDbLine
 10
2997.1303142748
 20
4454.5385717496
 30
0.0
 11
2973.4241463385
 21
4454.5385717496
 31
0.0
  0
ARC
  5
34D
330
1F
100
AcDbEntity
  8
0
  6
Continuous
 62
     7
370
    25
100
AcDbCircle
 10
2973.4241594385
 20
4454.2885731205
 30
0.0
 40
0.2500000000002655
100
AcDbArc
 50
90.0
 51
155.8000000001
  0
ARC
  5
34E
330
1F
100
AcDbEntity
  8
0
  6
Continuous
 62
     7
370
    25
100
AcDbCircle
 10
2766.4008722233
 20
4416.2885731205
 30
0.0
 40
1.750000000000447
100
AcDbArc
 50
204.2
 51
270.0
  0
ARC
  5
34F
330
1F
100
AcDbEntity
  8
0
  6
Continuous
 62
     7
370
    25
100
AcDbCircle
 10
2747.1303014133
 20
4454.2885731205
 30
0.0
 40
0.2500000000002655
100
AcDbArc
 50
24.1999999999
 51
90.0
  0
LINE
  5
350
330
1F
100
AcDbEntity
  8
0
  6
Continuous
 62
     7
370
    25
100
AcDbLine
 10
2747.130303099
 20
4454.5385717496
 30
0.0
 11
2723.424159377
 21
4454.5385717496
 31
0.0
  0
ARC
  5
351
330
1F
100
AcDbEntity
  8
0
  6
Continuous
 62
     7
370
    25
100
AcDbCircle
 10
2723.4241594385
 20
4454.2885731205
 30
0.0
 40
0.25
100
AcDbArc
 50
90.0
 51
155.8000000001
  0
ARC
  5
352
330
1F
100
AcDbEntity
  8
0
  6
Continuous
 62
     7
370
    25
100
AcDbCircle
 10
2516.4008722233
 20
4416.2885731205
 30
0.0
 40
1.750000000001276
100
AcDbArc
 50
204.2
 51
270.0
  0
ARC
  5
353
330
1F
100
AcDbEntity
  8
0
  6
Continuous
 62
     7
370
    25
100
AcDbCircle
 10
2497.1303014133
 20
4454.2885731205
 30
0.0
 40
0.25
100
AcDbArc
 50
24.1999999999
 51
90.0
  0
LINE
  5
354
330
1F
100
AcDbEntity
  8
0
  6
Continuous
 62
     7
370
    25
100
AcDbLine
 10
2497.1302993737
 20
4454.5385717496
 30
0.0
 11
2473.4241612397
 21
4454.5385717496
 31
0.0
  0
ARC
  5
355
330
1F
100
AcDbEntity
  8
0
  6
Continuous
 62
     7
370
    25
100
AcDbCircle
 10
2473.4241594385
 20
4454.2885731205
 30
0.0
 40
0.25
100
AcDbArc
 50
90.0
 51
155.8000000001
  0
ARC
  5
356
330
1F
100
AcDbEntity
  8
0
  6
Continuous
 62
     7
370
    25
100
AcDbCircle
 10
2266.4008722233
 20
4416.2885731205
 30
0.0
 40
1.750000000000447
100
AcDbArc
 50
204.2
 51
270.0
  0
LINE
  5
357
330
1F
100
AcDbEntity
  8
0
  6
Continuous
 62
     7
370
    25
100
AcDbLine
 10
2264.8046709738
 20
4415.5712082133
 30
0.0
 11
2247.3583318434
 21
4454.3910502538
 31
0.0
  0
ARC
  5
358
330
1F
100
AcDbEntity
  8
0
  6
Continuous
 62
     7
370
    25
100
AcDbCircle
 10
2247.1303014133
 20
4454.2885731205
 30
0.0
 40
0.25
100
AcDbArc
 50
24.1999999999
 51
90.0
  0
LINE
  5
359
330
1F
100
AcDbEntity
  8
0
  6
Continuous
 62
     7
370
    25
100
AcDbLine
 10
2247.1303142748
 20
4454.5385717496
 30
0.0
 11
2223.4241463385
 21
4454.5385717496
 31
0.0
  0
ARC
  5
35A
330
1F
100
AcDbEntity
  8
0
  6
Continuous
 62
     7
370
    25
100
AcDbCircle
 10
2223.4241594385
 20
4454.2885731205
 30
0.0
 40
0.25
100
AcDbArc
 50
90.0
 51
155.8000000001
  0
ARC
  5
35B
330
1F
100
AcDbEntity
  8
0
  6
Continuous
 62
     7
370
    25
100
AcDbCircle
 10
2016.4008722233
 20
4416.2885731205
 30
0.0
 40
1.750000000000447
100
AcDbArc
 50
204.2
 51
270.0
  0
LINE
  5
35C
330
1F
100
AcDbEntity
  8
0
  6
Continuous
 62
     7
370
    25
100
AcDbLine
 10
2014.8046709738
 20
4415.5712082133
 30
0.0
 11
1997.3583318434
 21
4454.3910502538
 31
0.0
  0
ARC
  5
35D
330
1F
100
AcDbEntity
  8
0
  6
Continuous
 62
     7
370
    25
100
AcDbCircle
 10
1997.1303014133
 20
4454.2885731205
 30
0.0
 40
0.25
100
AcDbArc
 50
24.1999999999
 51
90.0
  0
LINE
  5
35E
330
1F
100
AcDbEntity
  8
0
  6
Continuous
 62
     7
370
    25
100
AcDbLine
 10
1997.1302844725
 20
4454.5385717496
 30
0.0
 11
1973.4241463385
 21
4454.5385717496
 31
0.0
  0
ARC
  5
35F
330
1F
100
AcDbEntity
  8
0
  6
Continuous
 62
     7
370
    25
100
AcDbCircle
 10
1973.4241594385
 20
4454.2885731205
 30
0.0
 40
0.2500000000002655
100
AcDbArc
 50
90.0
 51
155.8000000001
  0
ARC
  5
360
330
1F
100
AcDbEntity
  8
0
  6
Continuous
 62
     7
370
    25
100
AcDbCircle
 10
1766.4008722233
 20
4416.2885731205
 30
0.0
 40
1.750000000001069
100
AcDbArc
 50
204.2
 51
270.0
  0
LINE
  5
361
330
1F
100
AcDbEntity
  8
0
  6
Continuous
 62
     7
370
    25
100
AcDbLine
 10
1764.8046709738
 20
4415.5712082133
 30
0.0
 11
1747.3583318434
 21
4454.3910502538
 31
0.0
  0
ARC
  5
362
330
1F
100
AcDbEntity
  8
0
  6
Continuous
 62
     7
370
    25
100
AcDbCircle
 10
1747.1303014133
 20
4454.2885731205
 30
0.0
 40
0.25
100
AcDbArc
 50
24.1999999999
 51
90.0
  0
LINE
  5
363
330
1F
100
AcDbEntity
  8
0
  6
Continuous
 62
     7
370
    25
100
AcDbLine
 10
1747.1302844725
 20
4454.5385717496
 30
0.0
 11
1723.4241463385
 21
4454.5385717496
 31
0.0
  0
ARC
  5
364
330
1F
100
AcDbEntity
  8
0
  6
Continuous
 62
     7
370
    25
100
AcDbCircle
 10
1723.4241594385
 20
4454.2885731205
 30
0.0
 40
0.25
100
AcDbArc
 50
90.0
 51
155.8000000001
  0
LINE
  5
365
330
1F
100
AcDbEntity
  8
0
  6
Continuous
 62
     7
370
    25
100
AcDbLine
 10
1723.1961585723
 20
4454.3910502538
 30
0.0
 11
1705.7497598372
 21
4415.5712082133
 31
0.0
  0
LINE
  5
366
330
1F
100
AcDbEntity
  8
0
  6
Continuous
 62
     7
370
    25
100
AcDbLine
 10
4943.2772494994
 20
4414.5385726437
 30
0.0
 11
4943.2772494994
 21
4415.2885778889
 31
0.0
  0
LINE
  5
367
330
1F
100
AcDbEntity
  8
0
  6
Continuous
 62
     7
370
    25
100
AcDbLine
 10
1610.2771856032
 20
4415.2885778889
 30
0.0
 11
1704.1535474501
 21
4415.2885778889
 31
0.0
  0
LINE
  5
368
330
1F
100
AcDbEntity
  8
0
  6
Continuous
 62
     7
370
    25
100
AcDbLine
 10
1766.4008833609
 20
4415.2885778889
 30
0.0
 11
1954.1536070548
 21
4415.2885778889
 31
0.0
  0
LINE
  5
369
330
1F
100
AcDbEntity
  8
0
  6
Continuous
 62
     7
370
    25
100
AcDbLine
 10
4723.1961585723
 20
4454.3910502538
 30
0.0
 11
4705.7497598372
 21
4415.5712082133
 31
0.0
  0
LINE
  5
36A
330
1F
100
AcDbEntity
  8
0
  6
Continuous
 62
     7
370
    25
100
AcDbLine
 10
4473.1961585723
 20
4454.3910502538
 30
0.0
 11
4455.7497598372
 21
4415.5712082133
 31
0.0
  0
LINE
  5
36B
330
1F
100
AcDbEntity
  8
0
  6
Continuous
 62
     7
370
    25
100
AcDbLine
 10
3473.1961585723
 20
4454.3910502538
 30
0.0
 11
3455.7498194419
 21
4415.5712082133
 31
0.0
  0
ARC
  5
36C
330
1F
100
AcDbEntity
  8
0
  6
Continuous
 62
     7
370
    25
100
AcDbCircle
 10
3454.1535886285
 20
4416.2885731205
 30
0.0
 40
1.750000000000861
100
AcDbArc
 50
270.0
 51
335.8
  0
LINE
  5
36D
330
1F
100
AcDbEntity
  8
0
  6
Continuous
 62
     7
370
    25
100
AcDbLine
 10
3454.1536070548
 20
4414.5385726437
 30
0.0
 11
3266.4008833609
 21
4414.5385726437
 31
0.0
  0
LINE
  5
36E
330
1F
100
AcDbEntity
  8
0
  6
Continuous
 62
     7
370
    25
100
AcDbLine
 10
1705.0657369338
 20
4415.878648971
 30
0.0
 11
1722.5120164595
 21
4454.6984984622
 31
0.0
  0
ARC
  5
36F
330
1F
100
AcDbEntity
  8
0
  6
Continuous
 62
     7
370
    25
100
AcDbCircle
 10
1704.1535886285
 20
4416.2885731205
 30
0.0
 40
1.000000000000563
100
AcDbArc
 50
270.0
 51
335.8
  0
LINE
  5
370
330
1F
100
AcDbEntity
  8
0
  6
Continuous
 62
     7
370
    25
100
AcDbLine
 10
2016.4008833609
 20
4415.2885778889
 30
0.0
 11
2204.1536070548
 21
4415.2885778889
 31
0.0
  0
LINE
  5
371
330
1F
100
AcDbEntity
  8
0
  6
Continuous
 62
     7
370
    25
100
AcDbLine
 10
2223.1961287699
 20
4454.3910502538
 30
0.0
 11
2205.7498194419
 21
4415.5712082133
 31
0.0
  0
LINE
  5
372
330
1F
100
AcDbEntity
  8
0
  6
Continuous
 62
     7
370
    25
100
AcDbLine
 10
4223.1961585723
 20
4454.3910502538
 30
0.0
 11
4205.7497598372
 21
4415.5712082133
 31
0.0
  0
LINE
  5
373
330
1F
100
AcDbEntity
  8
0
  6
Continuous
 62
     7
370
    25
100
AcDbLine
 10
3223.1961585723
 20
4454.3910502538
 30
0.0
 11
3205.7497896395
 21
4415.5712082133
 31
0.0
  0
ARC
  5
374
330
1F
100
AcDbEntity
  8
0
  6
Continuous
 62
     7
370
    25
100
AcDbCircle
 10
3204.1535886285
 20
4416.2885731205
 30
0.0
 40
1.750000000000447
100
AcDbArc
 50
270.0
 51
335.8
  0
LINE
  5
375
330
1F
100
AcDbEntity
  8
0
  6
Continuous
 62
     7
370
    25
100
AcDbLine
 10
3204.1535772524
 20
4414.5385726437
 30
0.0
 11
3016.4008833609
 21
4414.5385726437
 31
0.0
  0
LINE
  5
376
330
1F
100
AcDbEntity
  8
0
  6
Continuous
 62
     7
370
    25
100
AcDbLine
 10
1955.0657369338
 20
4415.878648971
 30
0.0
 11
1972.5120164595
 21
4454.6984984622
 31
0.0
  0
ARC
  5
377
330
1F
100
AcDbEntity
  8
0
  6
Continuous
 62
     7
370
    25
100
AcDbCircle
 10
1954.1535886285
 20
4416.2885731205
 30
0.0
 40
1.000000000000563
100
AcDbArc
 50
270.0
 51
335.8
  0
LINE
  5
378
330
1F
100
AcDbEntity
  8
0
  6
Continuous
 62
     7
370
    25
100
AcDbLine
 10
2266.4008833609
 20
4415.2885778889
 30
0.0
 11
2454.1535772524
 21
4415.2885778889
 31
0.0
  0
LINE
  5
379
330
1F
100
AcDbEntity
  8
0
  6
Continuous
 62
     7
370
    25
100
AcDbLine
 10
1973.1961585723
 20
4454.3910502538
 30
0.0
 11
1955.7498194419
 21
4415.5712082133
 31
0.0
  0
LINE
  5
37A
330
1F
100
AcDbEntity
  8
0
  6
Continuous
 62
     7
370
    25
100
AcDbLine
 10
3973.1961585723
 20
4454.3910502538
 30
0.0
 11
3955.7497598372
 21
4415.5712082133
 31
0.0
  0
LINE
  5
37B
330
1F
100
AcDbEntity
  8
0
  6
Continuous
 62
     7
370
    25
100
AcDbLine
 10
2973.1961287699
 20
4454.3910502538
 30
0.0
 11
2955.7498045407
 21
4415.5712082133
 31
0.0
  0
ARC
  5
37C
330
1F
100
AcDbEntity
  8
0
  6
Continuous
 62
     7
370
    25
100
AcDbCircle
 10
2954.1535886285
 20
4416.2885731205
 30
0.0
 40
1.750000000000032
100
AcDbArc
 50
270.0
 51
335.8
  0
LINE
  5
37D
330
1F
100
AcDbEntity
  8
0
  6
Continuous
 62
     7
370
    25
100
AcDbLine
 10
2954.1535921536
 20
4414.5385726437
 30
0.0
 11
2766.4008721851
 21
4414.5385726437
 31
0.0
  0
LINE
  5
37E
330
1F
100
AcDbEntity
  8
0
  6
Continuous
 62
     7
370
    25
100
AcDbLine
 10
2205.0657369338
 20
4415.878648971
 30
0.0
 11
2222.5120462618
 21
4454.6984984622
 31
0.0
  0
ARC
  5
37F
330
1F
100
AcDbEntity
  8
0
  6
Continuous
 62
     7
370
    25
100
AcDbCircle
 10
2204.1535886285
 20
4416.2885731205
 30
0.0
 40
1.000000000000563
100
AcDbArc
 50
270.0
 51
335.8
  0
LINE
  5
380
330
1F
100
AcDbEntity
  8
0
  6
Continuous
 62
     7
370
    25
100
AcDbLine
 10
2516.4008684598
 20
4415.2885778889
 30
0.0
 11
2704.1535884283
 21
4415.2885778889
 31
0.0
  0
ARC
  5
381
330
1F
100
AcDbEntity
  8
0
  6
Continuous
 62
     7
370
    25
100
AcDbCircle
 10
4766.4008722233
 20
4416.2885731205
 30
0.0
 40
1.75
100
AcDbArc
 50
204.2
 51
270.0
  0
LINE
  5
382
330
1F
100
AcDbEntity
  8
0
  6
Continuous
 62
     7
370
    25
100
AcDbLine
 10
2723.1961297013
 20
4454.3910502538
 30
0.0
 11
2705.7497989528
 21
4415.5712082133
 31
0.0
  0
LINE
  5
383
330
1F
100
AcDbEntity
  8
0
  6
Continuous
 62
     7
370
    25
100
AcDbLine
 10
4764.8047305785
 20
4415.5712082133
 30
0.0
 11
4747.3582126341
 21
4454.3910502538
 31
0.0
  0
ARC
  5
384
330
1F
100
AcDbEntity
  8
0
  6
Continuous
 62
     7
370
    25
100
AcDbCircle
 10
2704.1535886285
 20
4416.2885731205
 30
0.0
 40
1.75
100
AcDbArc
 50
270.0
 51
335.8
  0
LINE
  5
385
330
1F
100
AcDbEntity
  8
0
  6
Continuous
 62
     7
370
    25
100
AcDbLine
 10
2704.1535884283
 20
4414.5385726437
 30
0.0
 11
2516.4008684598
 21
4414.5385726437
 31
0.0
  0
LINE
  5
386
330
1F
100
AcDbEntity
  8
0
  6
Continuous
 62
     7
370
    25
100
AcDbLine
 10
2455.0657071314
 20
4415.878648971
 30
0.0
 11
2472.5120462618
 21
4454.6984984622
 31
0.0
  0
ARC
  5
387
330
1F
100
AcDbEntity
  8
0
  6
Continuous
 62
     7
370
    25
100
AcDbCircle
 10
2454.1535886285
 20
4416.2885731205
 30
0.0
 40
1.000000000000563
100
AcDbArc
 50
270.0
 51
335.8
  0
LINE
  5
388
330
1F
100
AcDbEntity
  8
0
  6
Continuous
 62
     7
370
    25
100
AcDbLine
 10
2766.4008721851
 20
4415.2885778889
 30
0.0
 11
2954.1535921536
 21
4415.2885778889
 31
0.0
  0
ARC
  5
389
330
1F
100
AcDbEntity
  8
0
  6
Continuous
 62
     7
370
    25
100
AcDbCircle
 10
4516.4008722233
 20
4416.2885731205
 30
0.0
 40
1.750000000000447
100
AcDbArc
 50
204.2
 51
270.0
  0
LINE
  5
38A
330
1F
100
AcDbEntity
  8
0
  6
Continuous
 62
     7
370
    25
100
AcDbLine
 10
2473.1961287699
 20
4454.3910502538
 30
0.0
 11
2455.7497896395
 21
4415.5712082133
 31
0.0
  0
LINE
  5
38B
330
1F
100
AcDbEntity
  8
0
  6
Continuous
 62
     7
370
    25
100
AcDbLine
 10
4514.8046113692
 20
4415.5712082133
 30
0.0
 11
4497.3583318434
 21
4454.3910502538
 31
0.0
  0
ARC
  5
38C
330
1F
100
AcDbEntity
  8
0
  6
Continuous
 62
     7
370
    25
100
AcDbCircle
 10
2454.1535886285
 20
4416.2885731205
 30
0.0
 40
1.750000000000032
100
AcDbArc
 50
270.0
 51
335.8
  0
LINE
  5
38D
330
1F
100
AcDbEntity
  8
0
  6
Continuous
 62
     7
370
    25
100
AcDbLine
 10
2454.1535772524
 20
4414.5385726437
 30
0.0
 11
2266.4008833609
 21
4414.5385726437
 31
0.0
  0
LINE
  5
38E
330
1F
100
AcDbEntity
  8
0
  6
Continuous
 62
     7
370
    25
100
AcDbLine
 10
2705.0657089941
 20
4415.878648971
 30
0.0
 11
2722.5120397426
 21
4454.6984984622
 31
0.0
  0
ARC
  5
38F
330
1F
100
AcDbEntity
  8
0
  6
Continuous
 62
     7
370
    25
100
AcDbCircle
 10
2704.1535886285
 20
4416.2885731205
 30
0.0
 40
1.000000000000149
100
AcDbArc
 50
270.0
 51
335.8
  0
LINE
  5
390
330
1F
100
AcDbEntity
  8
0
  6
Continuous
 62
     7
370
    25
100
AcDbLine
 10
3016.4008833609
 20
4415.2885778889
 30
0.0
 11
3204.1535772524
 21
4415.2885778889
 31
0.0
  0
ARC
  5
391
330
1F
100
AcDbEntity
  8
0
  6
Continuous
 62
     7
370
    25
100
AcDbCircle
 10
3016.4008722233
 20
4416.2885731205
 30
0.0
 40
1.0
100
AcDbArc
 50
204.2
 51
270.0
  0
LINE
  5
392
330
1F
100
AcDbEntity
  8
0
  6
Continuous
 62
     7
370
    25
100
AcDbLine
 10
2998.0424143515
 20
4454.6984984622
 30
0.0
 11
3015.4887534819
 21
4415.878648971
 31
0.0
  0
LINE
  5
393
330
1F
100
AcDbEntity
  8
0
  6
Continuous
 62
     7
370
    25
100
AcDbLine
 10
4264.8046113692
 20
4415.5712082133
 30
0.0
 11
4247.3583318434
 21
4454.3910502538
 31
0.0
  0
ARC
  5
394
330
1F
100
AcDbEntity
  8
0
  6
Continuous
 62
     7
370
    25
100
AcDbCircle
 10
2204.1535886285
 20
4416.2885731205
 30
0.0
 40
1.750000000000032
100
AcDbArc
 50
270.0
 51
335.8
  0
LINE
  5
395
330
1F
100
AcDbEntity
  8
0
  6
Continuous
 62
     7
370
    25
100
AcDbLine
 10
2204.1536070548
 20
4414.5385726437
 30
0.0
 11
2016.4008833609
 21
4414.5385726437
 31
0.0
  0
LINE
  5
396
330
1F
100
AcDbEntity
  8
0
  6
Continuous
 62
     7
370
    25
100
AcDbLine
 10
2955.0657071314
 20
4415.878648971
 30
0.0
 11
2972.5120462618
 21
4454.6984984622
 31
0.0
  0
ARC
  5
397
330
1F
100
AcDbEntity
  8
0
  6
Continuous
 62
     7
370
    25
100
AcDbCircle
 10
2954.1535886285
 20
4416.2885731205
 30
0.0
 40
1.0
100
AcDbArc
 50
270.0
 51
335.8
  0
LINE
  5
398
330
1F
100
AcDbEntity
  8
0
  6
Continuous
 62
     7
370
    25
100
AcDbLine
 10
3266.4008833609
 20
4415.2885778889
 30
0.0
 11
3454.1536070548
 21
4415.2885778889
 31
0.0
  0
ARC
  5
399
330
1F
100
AcDbEntity
  8
0
  6
Continuous
 62
     7
370
    25
100
AcDbCircle
 10
3266.4008722233
 20
4416.2885731205
 30
0.0
 40
1.000000000000149
100
AcDbArc
 50
204.2
 51
270.0
  0
LINE
  5
39A
330
1F
100
AcDbEntity
  8
0
  6
Continuous
 62
     7
370
    25
100
AcDbLine
 10
3248.0424143515
 20
4454.6984984622
 30
0.0
 11
3265.4887534819
 21
4415.878648971
 31
0.0
  0
LINE
  5
39B
330
1F
100
AcDbEntity
  8
0
  6
Continuous
 62
     7
370
    25
100
AcDbLine
 10
4014.8046113692
 20
4415.5712082133
 30
0.0
 11
3997.3583318434
 21
4454.3910502538
 31
0.0
  0
ARC
  5
39C
330
1F
100
AcDbEntity
  8
0
  6
Continuous
 62
     7
370
    25
100
AcDbCircle
 10
1954.1535886285
 20
4416.2885731205
 30
0.0
 40
1.750000000000032
100
AcDbArc
 50
270.0
 51
335.8
  0
LINE
  5
39D
330
1F
100
AcDbEntity
  8
0
  6
Continuous
 62
     7
370
    25
100
AcDbLine
 10
1954.1536070548
 20
4414.5385726437
 30
0.0
 11
1766.4008833609
 21
4414.5385726437
 31
0.0
  0
LINE
  5
39E
330
1F
100
AcDbEntity
  8
0
  6
Continuous
 62
     7
370
    25
100
AcDbLine
 10
3205.0657071314
 20
4415.878648971
 30
0.0
 11
3222.5120164595
 21
4454.6984984622
 31
0.0
  0
ARC
  5
39F
330
1F
100
AcDbEntity
  8
0
  6
Continuous
 62
     7
370
    25
100
AcDbCircle
 10
3204.1535886285
 20
4416.2885731205
 30
0.0
 40
1.000000000000563
100
AcDbArc
 50
270.0
 51
335.8
  0
LINE
  5
3A0
330
1F
100
AcDbEntity
  8
0
  6
Continuous
 62
     7
370
    25
100
AcDbLine
 10
3516.4008833609
 20
4415.2885778889
 30
0.0
 11
3704.1536070548
 21
4415.2885778889
 31
0.0
  0
ARC
  5
3A1
330
1F
100
AcDbEntity
  8
0
  6
Continuous
 62
     7
370
    25
100
AcDbCircle
 10
3516.4008722233
 20
4416.2885731205
 30
0.0
 40
1.0
100
AcDbArc
 50
204.2
 51
270.0
  0
LINE
  5
3A2
330
1F
100
AcDbEntity
  8
0
  6
Continuous
 62
     7
370
    25
100
AcDbLine
 10
3498.0424143515
 20
4454.6984984622
 30
0.0
 11
3515.4887534819
 21
4415.878648971
 31
0.0
  0
LINE
  5
3A3
330
1F
100
AcDbEntity
  8
0
  6
Continuous
 62
     7
370
    25
100
AcDbLine
 10
3764.8046113692
 20
4415.5712082133
 30
0.0
 11
3747.3583318434
 21
4454.3910502538
 31
0.0
  0
ARC
  5
3A4
330
1F
100
AcDbEntity
  8
0
  6
Continuous
 62
     7
370
    25
100
AcDbCircle
 10
1704.1535886285
 20
4416.2885731205
 30
0.0
 40
1.750000000000032
100
AcDbArc
 50
270.0
 51
335.8
  0
LINE
  5
3A5
330
1F
100
AcDbEntity
  8
0
  6
Continuous
 62
     7
370
    25
100
AcDbLine
 10
1704.1535474501
 20
4414.5385726437
 30
0.0
 11
1610.2771856032
 21
4414.5385726437
 31
0.0
  0
LINE
  5
3A6
330
1F
100
AcDbEntity
  8
0
  6
Continuous
 62
     7
370
    25
100
AcDbLine
 10
3455.0657369338
 20
4415.878648971
 30
0.0
 11
3472.5120164595
 21
4454.6984984622
 31
0.0
  0
ARC
  5
3A7
330
1F
100
AcDbEntity
  8
0
  6
Continuous
 62
     7
370
    25
100
AcDbCircle
 10
3454.1535886285
 20
4416.2885731205
 30
0.0
 40
1.000000000000149
100
AcDbArc
 50
270.0
 51
335.8
  0
LINE
  5
3A8
330
1F
100
AcDbEntity
  8
0
  6
Continuous
 62
     7
370
    25
100
AcDbLine
 10
3766.4008237563
 20
4415.2885778889
 30
0.0
 11
3954.1535474501
 21
4415.2885778889
 31
0.0
  0
ARC
  5
3A9
330
1F
100
AcDbEntity
  8
0
  6
Continuous
 62
     7
370
    25
100
AcDbCircle
 10
3766.4008722233
 20
4416.2885731205
 30
0.0
 40
1.0
100
AcDbArc
 50
204.2
 51
270.0
  0
LINE
  5
3AA
330
1F
100
AcDbEntity
  8
0
  6
Continuous
 62
     7
370
    25
100
AcDbLine
 10
3748.0424739562
 20
4454.6984984622
 30
0.0
 11
3765.4887534819
 21
4415.878648971
 31
0.0
  0
LINE
  5
3AB
330
1F
100
AcDbEntity
  8
0
  6
Continuous
 62
     7
370
    25
100
AcDbLine
 10
3514.8046709738
 20
4415.5712082133
 30
0.0
 11
3497.3583318434
 21
4454.3910502538
 31
0.0
  0
ARC
  5
3AC
330
1F
100
AcDbEntity
  8
0
  6
Continuous
 62
     7
370
    25
100
AcDbCircle
 10
1766.4008722233
 20
4416.2885731205
 30
0.0
 40
1.000000000000356
100
AcDbArc
 50
204.2
 51
270.0
  0
LINE
  5
3AD
330
1F
100
AcDbEntity
  8
0
  6
Continuous
 62
     7
370
    25
100
AcDbLine
 10
1748.0424143515
 20
4454.6984984622
 30
0.0
 11
1765.4887534819
 21
4415.878648971
 31
0.0
  0
LINE
  5
3AE
330
1F
100
AcDbEntity
  8
0
  6
Continuous
 62
     7
370
    25
100
AcDbLine
 10
3705.0657369338
 20
4415.878648971
 30
0.0
 11
3722.5120164595
 21
4454.6984984622
 31
0.0
  0
ARC
  5
3AF
330
1F
100
AcDbEntity
  8
0
  6
Continuous
 62
     7
370
    25
100
AcDbCircle
 10
3704.1535886285
 20
4416.2885731205
 30
0.0
 40
1.0
100
AcDbArc
 50
270.0
 51
335.8
  0
LINE
  5
3B0
330
1F
100
AcDbEntity
  8
0
  6
Continuous
 62
     7
370
    25
100
AcDbLine
 10
4016.4008237563
 20
4415.2885778889
 30
0.0
 11
4204.1535474501
 21
4415.2885778889
 31
0.0
  0
ARC
  5
3B1
330
1F
100
AcDbEntity
  8
0
  6
Continuous
 62
     7
370
    25
100
AcDbCircle
 10
4016.4008722233
 20
4416.2885731205
 30
0.0
 40
1.0
100
AcDbArc
 50
204.2
 51
270.0
  0
LINE
  5
3B2
330
1F
100
AcDbEntity
  8
0
  6
Continuous
 62
     7
370
    25
100
AcDbLine
 10
3998.0424739562
 20
4454.6984984622
 30
0.0
 11
4015.4887534819
 21
4415.878648971
 31
0.0
  0
LINE
  5
3B3
330
1F
100
AcDbEntity
  8
0
  6
Continuous
 62
     7
370
    25
100
AcDbLine
 10
3264.8046709738
 20
4415.5712082133
 30
0.0
 11
3247.3583318434
 21
4454.3910502538
 31
0.0
  0
ARC
  5
3B4
330
1F
100
AcDbEntity
  8
0
  6
Continuous
 62
     7
370
    25
100
AcDbCircle
 10
2016.4008722233
 20
4416.2885731205
 30
0.0
 40
1.0
100
AcDbArc
 50
204.2
 51
270.0
  0
LINE
  5
3B5
330
1F
100
AcDbEntity
  8
0
  6
Continuous
 62
     7
370
    25
100
AcDbLine
 10
1998.0424143515
 20
4454.6984984622
 30
0.0
 11
2015.4887534819
 21
4415.878648971
 31
0.0
  0
LINE
  5
3B6
330
1F
100
AcDbEntity
  8
0
  6
Continuous
 62
     7
370
    25
100
AcDbLine
 10
3955.0657369338
 20
4415.878648971
 30
0.0
 11
3972.5120164595
 21
4454.6984984622
 31
0.0
  0
ARC
  5
3B7
330
1F
100
AcDbEntity
  8
0
  6
Continuous
 62
     7
370
    25
100
AcDbCircle
 10
3954.1535886285
 20
4416.2885731205
 30
0.0
 40
1.000000000000563
100
AcDbArc
 50
270.0
 51
335.8
  0
LINE
  5
3B8
330
1F
100
AcDbEntity
  8
0
  6
Continuous
 62
     7
370
    25
100
AcDbLine
 10
4266.4008237563
 20
4415.2885778889
 30
0.0
 11
4454.1535474501
 21
4415.2885778889
 31
0.0
  0
ARC
  5
3B9
330
1F
100
AcDbEntity
  8
0
  6
Continuous
 62
     7
370
    25
100
AcDbCircle
 10
4266.4008722233
 20
4416.2885731205
 30
0.0
 40
1.000000000000149
100
AcDbArc
 50
204.2
 51
270.0
  0
LINE
  5
3BA
330
1F
100
AcDbEntity
  8
0
  6
Continuous
 62
     7
370
    25
100
AcDbLine
 10
4248.0424739562
 20
4454.6984984622
 30
0.0
 11
4265.4887534819
 21
4415.878648971
 31
0.0
  0
LINE
  5
3BB
330
1F
100
AcDbEntity
  8
0
  6
Continuous
 62
     7
370
    25
100
AcDbLine
 10
3014.8046709738
 20
4415.5712082133
 30
0.0
 11
2997.3583318434
 21
4454.3910502538
 31
0.0
  0
ARC
  5
3BC
330
1F
100
AcDbEntity
  8
0
  6
Continuous
 62
     7
370
    25
100
AcDbCircle
 10
2266.4008722233
 20
4416.2885731205
 30
0.0
 40
1.000000000000149
100
AcDbArc
 50
204.2
 51
270.0
  0
LINE
  5
3BD
330
1F
100
AcDbEntity
  8
0
  6
Continuous
 62
     7
370
    25
100
AcDbLine
 10
2248.0424143515
 20
4454.6984984622
 30
0.0
 11
2265.4887534819
 21
4415.878648971
 31
0.0
  0
LINE
  5
3BE
330
1F
100
AcDbEntity
  8
0
  6
Continuous
 62
     7
370
    25
100
AcDbLine
 10
4205.0657369338
 20
4415.878648971
 30
0.0
 11
4222.5120164595
 21
4454.6984984622
 31
0.0
  0
ARC
  5
3BF
330
1F
100
AcDbEntity
  8
0
  6
Continuous
 62
     7
370
    25
100
AcDbCircle
 10
4204.1535886285
 20
4416.2885731205
 30
0.0
 40
1.000000000000149
100
AcDbArc
 50
270.0
 51
335.8
  0
LINE
  5
3C0
330
1F
100
AcDbEntity
  8
0
  6
Continuous
 62
     7
370
    25
100
AcDbLine
 10
4516.4008237563
 20
4415.2885778889
 30
0.0
 11
4704.1535474501
 21
4415.2885778889
 31
0.0
  0
ARC
  5
3C1
330
1F
100
AcDbEntity
  8
0
  6
Continuous
 62
     7
370
    25
100
AcDbCircle
 10
4516.4008722233
 20
4416.2885731205
 30
0.0
 40
1.0
100
AcDbArc
 50
204.2
 51
270.0
  0
LINE
  5
3C2
330
1F
100
AcDbEntity
  8
0
  6
Continuous
 62
     7
370
    25
100
AcDbLine
 10
4498.0424739562
 20
4454.6984984622
 30
0.0
 11
4515.4887534819
 21
4415.878648971
 31
0.0
  0
LINE
  5
3C3
330
1F
100
AcDbEntity
  8
0
  6
Continuous
 62
     7
370
    25
100
AcDbLine
 10
2764.8046635233
 20
4415.5712082133
 30
0.0
 11
2747.3583318434
 21
4454.3910502538
 31
0.0
  0
ARC
  5
3C4
330
1F
100
AcDbEntity
  8
0
  6
Continuous
 62
     7
370
    25
100
AcDbCircle
 10
2516.4008722233
 20
4416.2885731205
 30
0.0
 40
1.000000000000563
100
AcDbArc
 50
204.2
 51
270.0
  0
LINE
  5
3C5
330
1F
100
AcDbEntity
  8
0
  6
Continuous
 62
     7
370
    25
100
AcDbLine
 10
2498.0424143515
 20
4454.6984984622
 30
0.0
 11
2515.4887534819
 21
4415.878648971
 31
0.0
  0
LINE
  5
3C6
330
1F
100
AcDbEntity
  8
0
  6
Continuous
 62
     7
370
    25
100
AcDbLine
 10
4455.0657369338
 20
4415.878648971
 30
0.0
 11
4472.5120164595
 21
4454.6984984622
 31
0.0
  0
ARC
  5
3C7
330
1F
100
AcDbEntity
  8
0
  6
Continuous
 62
     7
370
    25
100
AcDbCircle
 10
4454.1535886285
 20
4416.2885731205
 30
0.0
 40
1.000000000000978
100
AcDbArc
 50
270.0
 51
335.8
  0
LINE
  5
3C8
330
1F
100
AcDbEntity
  8
0
  6
Continuous
 62
     7
370
    25
100
AcDbLine
 10
4766.4009429656
 20
4415.2885778889
 30
0.0
 11
4943.2772494994
 21
4415.2885778889
 31
0.0
  0
ARC
  5
3C9
330
1F
100
AcDbEntity
  8
0
  6
Continuous
 62
     7
370
    25
100
AcDbCircle
 10
4766.4008722233
 20
4416.2885731205
 30
0.0
 40
1.000000000000149
100
AcDbArc
 50
204.2
 51
270.0
  0
LINE
  5
3CA
330
1F
100
AcDbEntity
  8
0
  6
Continuous
 62
     7
370
    25
100
AcDbLine
 10
4748.0424739562
 20
4454.6984984622
 30
0.0
 11
4765.4887534819
 21
4415.878648971
 31
0.0
  0
LINE
  5
3CB
330
1F
100
AcDbEntity
  8
0
  6
Continuous
 62
     7
370
    25
100
AcDbLine
 10
2514.8046560727
 20
4415.5712082133
 30
0.0
 11
2497.3583318434
 21
4454.3910502538
 31
0.0
  0
ARC
  5
3CC
330
1F
100
AcDbEntity
  8
0
  6
Continuous
 62
     7
370
    25
100
AcDbCircle
 10
2766.4008722233
 20
4416.2885731205
 30
0.0
 40
1.000000000000563
100
AcDbArc
 50
204.2
 51
270.0
  0
LINE
  5
3CD
330
1F
100
AcDbEntity
  8
0
  6
Continuous
 62
     7
370
    25
100
AcDbLine
 10
2748.0424218021
 20
4454.6984984622
 30
0.0
 11
2765.4887534819
 21
4415.878648971
 31
0.0
  0
LINE
  5
3CE
330
1F
100
AcDbEntity
  8
0
  6
Continuous
 62
     7
370
    25
100
AcDbLine
 10
4705.0657369338
 20
4415.878648971
 30
0.0
 11
4722.5121356688
 21
4454.6984984622
 31
0.0
  0
ARC
  5
3CF
330
1F
100
AcDbEntity
  8
0
  6
Continuous
 62
     7
370
    25
100
AcDbCircle
 10
4704.1535886285
 20
4416.2885731205
 30
0.0
 40
1.0
100
AcDbArc
 50
270.0
 51
335.8
  0
LINE
  5
3D0
330
1F
100
AcDbEntity
  8
0
  6
Continuous
 62
     7
370
    25
100
AcDbLine
 10
4699.2771722518
 20
4517.2885722563
 30
0.0
 11
4697.277198001
 21
4517.2885722563
 31
0.0
  0
LINE
  5
3D1
330
1F
100
AcDbEntity
  8
0
  6
Continuous
 62
     7
370
    25
100
AcDbLine
 10
4699.2771722518
 20
4517.2885722563
 30
0.0
 11
4699.2771722518
 21
4459.2885701999
 31
0.0
  0
LINE
  5
3D2
330
1F
100
AcDbEntity
  8
0
  6
Continuous
 62
     7
370
    25
100
AcDbLine
 10
4697.277198001
 20
4459.2885701999
 30
0.0
 11
4699.2771722518
 21
4459.2885701999
 31
0.0
  0
LINE
  5
3D3
330
1F
100
AcDbEntity
  8
0
  6
Continuous
 62
     7
370
    25
100
AcDbLine
 10
4697.277198001
 20
4517.2885722563
 30
0.0
 11
4697.277198001
 21
4459.2885701999
 31
0.0
  0
ARC
  5
3D4
330
1F
100
AcDbEntity
  8
0
  6
Continuous
 62
     7
370
    25
100
AcDbCircle
 10
4701.2772304259
 20
4517.2885731205
 30
0.0
 40
2.000000000000909
100
AcDbArc
 50
90.0
 51
179.9999999998
  0
ARC
  5
3D5
330
1F
100
AcDbEntity
  8
0
  6
Continuous
 62
     7
370
    25
100
AcDbCircle
 10
4701.2772304259
 20
4517.2885731205
 30
0.0
 40
4.0
100
AcDbArc
 50
90.0
 51
179.9999999999
  0
LINE
  5
3D6
330
1F
100
AcDbEntity
  8
0
  6
Continuous
 62
     7
370
    25
100
AcDbLine
 10
4701.2772657118
 20
4521.2885729119
 30
0.0
 11
4701.2772657118
 21
4519.2885725841
 31
0.0
  0
LINE
  5
3D7
330
1F
100
AcDbEntity
  8
0
  6
Continuous
 62
     7
370
    25
100
AcDbLine
 10
4725.2773143492
 20
4519.2885725841
 30
0.0
 11
4725.2773143492
 21
4521.2885729119
 31
0.0
  0
LINE
  5
3D8
330
1F
100
AcDbEntity
  8
0
  6
Continuous
 62
     7
370
    25
100
AcDbLine
 10
4725.2773143492
 20
4521.2885729119
 30
0.0
 11
4701.2772657118
 21
4521.2885729119
 31
0.0
  0
LINE
  5
3D9
330
1F
100
AcDbEntity
  8
0
  6
Continuous
 62
     7
370
    25
100
AcDbLine
 10
4725.2773143492
 20
4519.2885725841
 30
0.0
 11
4701.2772657118
 21
4519.2885725841
 31
0.0
  0
LINE
  5
3DA
330
1F
100
AcDbEntity
  8
0
  6
Continuous
 62
     7
370
    25
100
AcDbLine
 10
4701.2772657118
 20
4457.2885735974
 30
0.0
 11
4701.2772657118
 21
4455.2885695443
 31
0.0
  0
LINE
  5
3DB
330
1F
100
AcDbEntity
  8
0
  6
Continuous
 62
     7
370
    25
100
AcDbLine
 10
4701.2772657118
 20
4457.2885735974
 30
0.0
 11
4755.277285739
 21
4457.2885735974
 31
0.0
  0
LINE
  5
3DC
330
1F
100
AcDbEntity
  8
0
  6
Continuous
 62
     7
370
    25
100
AcDbLine
 10
4755.277285739
 20
4455.2885695443
 30
0.0
 11
4755.277285739
 21
4457.2885735974
 31
0.0
  0
LINE
  5
3DD
330
1F
100
AcDbEntity
  8
0
  6
Continuous
 62
     7
370
    25
100
AcDbLine
 10
4701.2772657118
 20
4455.2885695443
 30
0.0
 11
4723.4240867339
 21
4455.2885695443
 31
0.0
  0
LINE
  5
3DE
330
1F
100
AcDbEntity
  8
0
  6
Continuous
 62
     7
370
    25
100
AcDbLine
 10
4747.1302844725
 20
4455.2885695443
 30
0.0
 11
4755.277285739
 21
4455.2885695443
 31
0.0
  0
ARC
  5
3DF
330
1F
100
AcDbEntity
  8
0
  6
Continuous
 62
     7
370
    25
100
AcDbCircle
 10
4701.2772304259
 20
4459.2885731205
 30
0.0
 40
2.000000000000909
100
AcDbArc
 50
180.0
 51
269.9999999999
  0
ARC
  5
3E0
330
1F
100
AcDbEntity
  8
0
  6
Continuous
 62
     7
370
    25
100
AcDbCircle
 10
4701.2772304259
 20
4459.2885731205
 30
0.0
 40
4.000000000000909
100
AcDbArc
 50
180.0
 51
269.9999999999
  0
ARC
  5
3E1
330
1F
100
AcDbEntity
  8
0
  6
Continuous
 62
     7
370
    25
100
AcDbCircle
 10
4755.2772304259
 20
4459.2885731205
 30
0.0
 40
2.000000000000909
100
AcDbArc
 50
270.0
 51
0.0
  0
LINE
  5
3E2
330
1F
100
AcDbEntity
  8
0
  6
Continuous
 62
     7
370
    25
100
AcDbLine
 10
4757.2771407805
 20
4459.2885701999
 30
0.0
 11
4759.2772342406
 21
4459.2885701999
 31
0.0
  0
ARC
  5
3E3
330
1F
100
AcDbEntity
  8
0
  6
Continuous
 62
     7
370
    25
100
AcDbCircle
 10
4755.2772304259
 20
4459.2885731205
 30
0.0
 40
4.000000000000909
100
AcDbArc
 50
270.0
 51
0.0000000001
  0
LINE
  5
3E4
330
1F
100
AcDbEntity
  8
0
  6
Continuous
 62
     7
370
    25
100
AcDbLine
 10
4757.2771407805
 20
4459.2885701999
 30
0.0
 11
4757.2771407805
 21
4469.2885755643
 31
0.0
  0
LINE
  5
3E5
330
1F
100
AcDbEntity
  8
0
  6
Continuous
 62
     7
370
    25
100
AcDbLine
 10
4757.2771407805
 20
4469.2885755643
 30
0.0
 11
4759.2772342406
 21
4469.2885755643
 31
0.0
  0
LINE
  5
3E6
330
1F
100
AcDbEntity
  8
0
  6
Continuous
 62
     7
370
    25
100
AcDbLine
 10
4759.2772342406
 20
4459.2885701999
 30
0.0
 11
4759.2772342406
 21
4469.2885755643
 31
0.0
  0
ARC
  5
3E7
330
1F
100
AcDbEntity
  8
0
  6
Continuous
 62
     7
370
    25
100
AcDbCircle
 10
4725.2772304259
 20
4517.2885731205
 30
0.0
 40
4.0
100
AcDbArc
 50
0.0000000001
 51
90.0
  0
LINE
  5
3E8
330
1F
100
AcDbEntity
  8
0
  6
Continuous
 62
     7
370
    25
100
AcDbLine
 10
4729.2772628508
 20
4517.2885722563
 30
0.0
 11
4727.2771693907
 21
4517.2885722563
 31
0.0
  0
ARC
  5
3E9
330
1F
100
AcDbEntity
  8
0
  6
Continuous
 62
     7
370
    25
100
AcDbCircle
 10
4725.2772304259
 20
4517.2885731205
 30
0.0
 40
2.000000000000909
100
AcDbArc
 50
0.0000000002
 51
90.0
  0
LINE
  5
3EA
330
1F
100
AcDbEntity
  8
0
  6
Continuous
 62
     7
370
    25
100
AcDbLine
 10
4729.2772628508
 20
4507.2885743424
 30
0.0
 11
4727.2771693907
 21
4507.2885743424
 31
0.0
  0
LINE
  5
3EB
330
1F
100
AcDbEntity
  8
0
  6
Continuous
 62
     7
370
    25
100
AcDbLine
 10
4727.2771693907
 20
4507.2885743424
 30
0.0
 11
4727.2771693907
 21
4517.2885722563
 31
0.0
  0
LINE
  5
3EC
330
1F
100
AcDbEntity
  8
0
  6
Continuous
 62
     7
370
    25
100
AcDbLine
 10
4729.2772628508
 20
4507.2885743424
 30
0.0
 11
4729.2772628508
 21
4517.2885722563
 31
0.0
  0
LINE
  5
3ED
330
1F
100
AcDbEntity
  8
0
  6
Continuous
 62
     7
370
    25
100
AcDbLine
 10
3949.2771722518
 20
4517.2885722563
 30
0.0
 11
3947.277198001
 21
4517.2885722563
 31
0.0
  0
LINE
  5
3EE
330
1F
100
AcDbEntity
  8
0
  6
Continuous
 62
     7
370
    25
100
AcDbLine
 10
3947.277198001
 20
4459.2885701999
 30
0.0
 11
3949.2771722518
 21
4459.2885701999
 31
0.0
  0
LINE
  5
3EF
330
1F
100
AcDbEntity
  8
0
  6
Continuous
 62
     7
370
    25
100
AcDbLine
 10
3947.277198001
 20
4517.2885722563
 30
0.0
 11
3947.277198001
 21
4459.2885701999
 31
0.0
  0
LINE
  5
3F0
330
1F
100
AcDbEntity
  8
0
  6
Continuous
 62
     7
370
    25
100
AcDbLine
 10
3949.2771722518
 20
4517.2885722563
 30
0.0
 11
3949.2771722518
 21
4459.2885701999
 31
0.0
  0
ARC
  5
3F1
330
1F
100
AcDbEntity
  8
0
  6
Continuous
 62
     7
370
    25
100
AcDbCircle
 10
3951.2772304259
 20
4459.2885731206
 30
0.0
 40
2.000000000000455
100
AcDbArc
 50
180.0
 51
269.9999999999
  0
LINE
  5
3F2
330
1F
100
AcDbEntity
  8
0
  6
Continuous
 62
     7
370
    25
100
AcDbLine
 10
3951.2772657118
 20
4457.2885735974
 30
0.0
 11
3951.2772657118
 21
4455.2885695443
 31
0.0
  0
ARC
  5
3F3
330
1F
100
AcDbEntity
  8
0
  6
Continuous
 62
     7
370
    25
100
AcDbCircle
 10
3951.2772304259
 20
4459.2885731206
 30
0.0
 40
4.0
100
AcDbArc
 50
180.0
 51
269.9999999999
  0
LINE
  5
3F4
330
1F
100
AcDbEntity
  8
0
  6
Continuous
 62
     7
370
    25
100
AcDbLine
 10
3951.2772657118
 20
4457.2885735974
 30
0.0
 11
4005.277285739
 21
4457.2885735974
 31
0.0
  0
LINE
  5
3F5
330
1F
100
AcDbEntity
  8
0
  6
Continuous
 62
     7
370
    25
100
AcDbLine
 10
4005.277285739
 20
4455.2885695443
 30
0.0
 11
4005.277285739
 21
4457.2885735974
 31
0.0
  0
LINE
  5
3F6
330
1F
100
AcDbEntity
  8
0
  6
Continuous
 62
     7
370
    25
100
AcDbLine
 10
3951.2772657118
 20
4455.2885695443
 30
0.0
 11
3973.4242059432
 21
4455.2885695443
 31
0.0
  0
LINE
  5
3F7
330
1F
100
AcDbEntity
  8
0
  6
Continuous
 62
     7
370
    25
100
AcDbLine
 10
3997.1302844725
 20
4455.2885695443
 30
0.0
 11
4005.277285739
 21
4455.2885695443
 31
0.0
  0
ARC
  5
3F8
330
1F
100
AcDbEntity
  8
0
  6
Continuous
 62
     7
370
    25
100
AcDbCircle
 10
3951.2772304259
 20
4517.2885731206
 30
0.0
 40
2.000000000000455
100
AcDbArc
 50
90.0
 51
179.9999999998
  0
ARC
  5
3F9
330
1F
100
AcDbEntity
  8
0
  6
Continuous
 62
     7
370
    25
100
AcDbCircle
 10
3951.2772304259
 20
4517.2885731206
 30
0.0
 40
4.0
100
AcDbArc
 50
90.0
 51
179.9999999999
  0
LINE
  5
3FA
330
1F
100
AcDbEntity
  8
0
  6
Continuous
 62
     7
370
    25
100
AcDbLine
 10
3951.2772657118
 20
4521.2885729119
 30
0.0
 11
3951.2772657118
 21
4519.2885725841
 31
0.0
  0
LINE
  5
3FB
330
1F
100
AcDbEntity
  8
0
  6
Continuous
 62
     7
370
    25
100
AcDbLine
 10
3975.2771951399
 20
4519.2885725841
 30
0.0
 11
3975.2771951399
 21
4521.2885729119
 31
0.0
  0
LINE
  5
3FC
330
1F
100
AcDbEntity
  8
0
  6
Continuous
 62
     7
370
    25
100
AcDbLine
 10
3975.2771951399
 20
4519.2885725841
 30
0.0
 11
3951.2772657118
 21
4519.2885725841
 31
0.0
  0
LINE
  5
3FD
330
1F
100
AcDbEntity
  8
0
  6
Continuous
 62
     7
370
    25
100
AcDbLine
 10
3975.2771951399
 20
4521.2885729119
 30
0.0
 11
3951.2772657118
 21
4521.2885729119
 31
0.0
  0
ARC
  5
3FE
330
1F
100
AcDbEntity
  8
0
  6
Continuous
 62
     7
370
    25
100
AcDbCircle
 10
4005.2772304259
 20
4459.2885731206
 30
0.0
 40
2.000000000000455
100
AcDbArc
 50
270.0
 51
0.0
  0
LINE
  5
3FF
330
1F
100
AcDbEntity
  8
0
  6
Continuous
 62
     7
370
    25
100
AcDbLine
 10
4007.2772599898
 20
4459.2885701999
 30
0.0
 11
4009.2772342406
 21
4459.2885701999
 31
0.0
  0
ARC
  5
400
330
1F
100
AcDbEntity
  8
0
  6
Continuous
 62
     7
370
    25
100
AcDbCircle
 10
4005.2772304259
 20
4459.2885731206
 30
0.0
 40
4.000000000000455
100
AcDbArc
 50
270.0
 51
0.0000000002
  0
LINE
  5
401
330
1F
100
AcDbEntity
  8
0
  6
Continuous
 62
     7
370
    25
100
AcDbLine
 10
4007.2772599898
 20
4469.2885755643
 30
0.0
 11
4009.2772342406
 21
4469.2885755643
 31
0.0
  0
LINE
  5
402
330
1F
100
AcDbEntity
  8
0
  6
Continuous
 62
     7
370
    25
100
AcDbLine
 10
4009.2772342406
 20
4459.2885701999
 30
0.0
 11
4009.2772342406
 21
4469.2885755643
 31
0.0
  0
LINE
  5
403
330
1F
100
AcDbEntity
  8
0
  6
Continuous
 62
     7
370
    25
100
AcDbLine
 10
4007.2772599898
 20
4459.2885701999
 30
0.0
 11
4007.2772599898
 21
4469.2885755643
 31
0.0
  0
ARC
  5
404
330
1F
100
AcDbEntity
  8
0
  6
Continuous
 62
     7
370
    25
100
AcDbCircle
 10
3975.2772304259
 20
4517.2885731206
 30
0.0
 40
4.0
100
AcDbArc
 50
0.0000000001
 51
90.0
  0
LINE
  5
405
330
1F
100
AcDbEntity
  8
0
  6
Continuous
 62
     7
370
    25
100
AcDbLine
 10
3979.2772628508
 20
4517.2885722563
 30
0.0
 11
3977.2772886
 21
4517.2885722563
 31
0.0
  0
ARC
  5
406
330
1F
100
AcDbEntity
  8
0
  6
Continuous
 62
     7
370
    25
100
AcDbCircle
 10
3975.2772304259
 20
4517.2885731206
 30
0.0
 40
2.000000000000455
100
AcDbArc
 50
0.0000000002
 51
90.0
  0
LINE
  5
407
330
1F
100
AcDbEntity
  8
0
  6
Continuous
 62
     7
370
    25
100
AcDbLine
 10
3979.2772628508
 20
4507.2885743424
 30
0.0
 11
3977.2772886
 21
4507.2885743424
 31
0.0
  0
LINE
  5
408
330
1F
100
AcDbEntity
  8
0
  6
Continuous
 62
     7
370
    25
100
AcDbLine
 10
3979.2772628508
 20
4507.2885743424
 30
0.0
 11
3979.2772628508
 21
4517.2885722563
 31
0.0
  0
LINE
  5
409
330
1F
100
AcDbEntity
  8
0
  6
Continuous
 62
     7
370
    25
100
AcDbLine
 10
3977.2772886
 20
4507.2885743424
 30
0.0
 11
3977.2772886
 21
4517.2885722563
 31
0.0
  0
LINE
  5
40A
330
1F
100
AcDbEntity
  8
0
  6
Continuous
 62
     7
370
    25
100
AcDbLine
 10
3833.2772351943
 20
4521.2885729119
 30
0.0
 11
3833.2772351943
 21
4525.2885735676
 31
0.0
  0
LINE
  5
40B
330
1F
100
AcDbEntity
  8
0
  6
Continuous
 62
     7
370
    25
100
AcDbLine
 10
4843.2773448668
 20
4525.2885735676
 30
0.0
 11
3833.2772351943
 21
4525.2885735676
 31
0.0
  0
LINE
  5
40C
330
1F
100
AcDbEntity
  8
0
  6
Continuous
 62
     7
370
    25
100
AcDbLine
 10
4843.2773448668
 20
4525.2885735676
 30
0.0
 11
4843.2773448668
 21
4521.2885729119
 31
0.0
  0
LINE
  5
40D
330
1F
100
AcDbEntity
  8
0
  6
Continuous
 62
     7
370
    25
100
AcDbLine
 10
4843.2773448668
 20
4521.2885729119
 30
0.0
 11
4725.2773143492
 21
4521.2885729119
 31
0.0
  0
LINE
  5
40E
330
1F
100
AcDbEntity
  8
0
  6
Continuous
 62
     7
370
    25
100
AcDbLine
 10
4701.2772657118
 20
4521.2885729119
 30
0.0
 11
3975.2771951399
 21
4521.2885729119
 31
0.0
  0
LINE
  5
40F
330
1F
100
AcDbEntity
  8
0
  6
Continuous
 62
     7
370
    25
100
AcDbLine
 10
3951.2772657118
 20
4521.2885729119
 30
0.0
 11
3833.2772351943
 21
4521.2885729119
 31
0.0
  0
LINE
  5
410
330
1F
100
AcDbEntity
  8
0
  6
Continuous
 62
     7
370
    25
100
AcDbLine
 10
4689.2771817885
 20
4562.6885733649
 30
0.0
 11
4697.277198001
 21
4562.6885733649
 31
0.0
  0
ARC
  5
411
330
1F
100
AcDbEntity
  8
0
  6
Continuous
 62
     7
370
    25
100
AcDbCircle
 10
4689.2772304259
 20
4556.6885731205
 30
0.0
 40
6.0
100
AcDbArc
 50
90.0
 51
270.0
  0
LINE
  5
412
330
1F
100
AcDbEntity
  8
0
  6
Continuous
 62
     7
370
    25
100
AcDbLine
 10
4697.277198001
 20
4550.6885732606
 30
0.0
 11
4689.2771817885
 21
4550.6885732606
 31
0.0
  0
ARC
  5
413
330
1F
100
AcDbEntity
  8
0
  6
Continuous
 62
     7
370
    25
100
AcDbCircle
 10
4697.2772304259
 20
4556.6885731205
 30
0.0
 40
6.0
100
AcDbArc
 50
270.0
 51
90.0
  0
LINE
  5
414
330
1F
100
AcDbEntity
  8
0
  6
Continuous
 62
     7
370
    25
100
AcDbLine
 10
4649.2772199355
 20
4562.6885733649
 30
0.0
 11
4657.2772361479
 21
4562.6885733649
 31
0.0
  0
ARC
  5
415
330
1F
100
AcDbEntity
  8
0
  6
Continuous
 62
     7
370
    25
100
AcDbCircle
 10
4649.2772304259
 20
4556.6885731205
 30
0.0
 40
6.0
100
AcDbArc
 50
90.0
 51
270.0
  0
LINE
  5
416
330
1F
100
AcDbEntity
  8
0
  6
Continuous
 62
     7
370
    25
100
AcDbLine
 10
4657.2772361479
 20
4550.6885732606
 30
0.0
 11
4649.2772199355
 21
4550.6885732606
 31
0.0
  0
ARC
  5
417
330
1F
100
AcDbEntity
  8
0
  6
Continuous
 62
     7
370
    25
100
AcDbCircle
 10
4657.2772304259
 20
4556.6885731205
 30
0.0
 40
6.000000000000909
100
AcDbArc
 50
270.0
 51
90.0
  0
LINE
  5
418
330
1F
100
AcDbEntity
  8
0
  6
Continuous
 62
     7
370
    25
100
AcDbLine
 10
4609.2772580825
 20
4569.2885733292
 30
0.0
 11
4617.2772742949
 21
4569.2885733292
 31
0.0
  0
ARC
  5
419
330
1F
100
AcDbEntity
  8
0
  6
Continuous
 62
     7
370
    25
100
AcDbCircle
 10
4609.2772304259
 20
4563.2885731205
 30
0.0
 40
6.000000000000909
100
AcDbArc
 50
90.0
 51
270.0
  0
LINE
  5
41A
330
1F
100
AcDbEntity
  8
0
  6
Continuous
 62
     7
370
    25
100
AcDbLine
 10
4617.2772742949
 20
4557.2885732249
 30
0.0
 11
4609.2772580825
 21
4557.2885732249
 31
0.0
  0
ARC
  5
41B
330
1F
100
AcDbEntity
  8
0
  6
Continuous
 62
     7
370
    25
100
AcDbCircle
 10
4617.2772304259
 20
4563.2885731205
 30
0.0
 40
6.000000000000909
100
AcDbArc
 50
270.0
 51
90.0
  0
LINE
  5
41C
330
1F
100
AcDbEntity
  8
0
  6
Continuous
 62
     7
370
    25
100
AcDbLine
 10
4342.2771789275
 20
4557.2885732249
 30
0.0
 11
4334.2772819243
 21
4557.2885732249
 31
0.0
  0
ARC
  5
41D
330
1F
100
AcDbEntity
  8
0
  6
Continuous
 62
     7
370
    25
100
AcDbCircle
 10
4342.2772304259
 20
4563.2885731205
 30
0.0
 40
6.0
100
AcDbArc
 50
270.0
 51
90.0
  0
LINE
  5
41E
330
1F
100
AcDbEntity
  8
0
  6
Continuous
 62
     7
370
    25
100
AcDbLine
 10
4334.2772819243
 20
4569.2885733292
 30
0.0
 11
4342.2771789275
 21
4569.2885733292
 31
0.0
  0
ARC
  5
41F
330
1F
100
AcDbEntity
  8
0
  6
Continuous
 62
     7
370
    25
100
AcDbCircle
 10
4334.2772304259
 20
4563.2885731205
 30
0.0
 40
6.000000000000909
100
AcDbArc
 50
90.0
 51
270.0
  0
LINE
  5
420
330
1F
100
AcDbEntity
  8
0
  6
Continuous
 62
     7
370
    25
100
AcDbLine
 10
3833.2772351943
 20
4576.2885726139
 30
0.0
 11
3833.2772351943
 21
4525.2885735676
 31
0.0
  0
LINE
  5
421
330
1F
100
AcDbEntity
  8
0
  6
Continuous
 62
     7
370
    25
100
AcDbLine
 10
4843.2773448668
 20
4576.2885726139
 30
0.0
 11
3833.2772351943
 21
4576.2885726139
 31
0.0
  0
LINE
  5
422
330
1F
100
AcDbEntity
  8
0
  6
Continuous
 62
     7
370
    25
100
AcDbLine
 10
4843.2773448668
 20
4525.2885735676
 30
0.0
 11
4843.2773448668
 21
4576.2885726139
 31
0.0
  0
LINE
  5
423
330
1F
100
AcDbEntity
  8
0
  6
Continuous
 62
     7
370
    25
100
AcDbLine
 10
4067.2772027693
 20
4557.2885732249
 30
0.0
 11
4059.2771865569
 21
4557.2885732249
 31
0.0
  0
ARC
  5
424
330
1F
100
AcDbEntity
  8
0
  6
Continuous
 62
     7
370
    25
100
AcDbCircle
 10
4067.2772304259
 20
4563.2885731205
 30
0.0
 40
6.0
100
AcDbArc
 50
270.0
 51
90.0
  0
LINE
  5
425
330
1F
100
AcDbEntity
  8
0
  6
Continuous
 62
     7
370
    25
100
AcDbLine
 10
4059.2771865569
 20
4569.2885733292
 30
0.0
 11
4067.2772027693
 21
4569.2885733292
 31
0.0
  0
ARC
  5
426
330
1F
100
AcDbEntity
  8
0
  6
Continuous
 62
     7
370
    25
100
AcDbCircle
 10
4059.2772304259
 20
4563.2885731205
 30
0.0
 40
6.000000000000909
100
AcDbArc
 50
90.0
 51
270.0
  0
LINE
  5
427
330
1F
100
AcDbEntity
  8
0
  6
Continuous
 62
     7
370
    25
100
AcDbLine
 10
4027.2772409163
 20
4550.6885732606
 30
0.0
 11
4019.2772247039
 21
4550.6885732606
 31
0.0
  0
ARC
  5
428
330
1F
100
AcDbEntity
  8
0
  6
Continuous
 62
     7
370
    25
100
AcDbCircle
 10
4027.2772304259
 20
4556.6885731205
 30
0.0
 40
6.000000000000909
100
AcDbArc
 50
270.0
 51
90.0
  0
LINE
  5
429
330
1F
100
AcDbEntity
  8
0
  6
Continuous
 62
     7
370
    25
100
AcDbLine
 10
4019.2772247039
 20
4562.6885733649
 30
0.0
 11
4027.2772409163
 21
4562.6885733649
 31
0.0
  0
ARC
  5
42A
330
1F
100
AcDbEntity
  8
0
  6
Continuous
 62
     7
370
    25
100
AcDbCircle
 10
4019.2772304259
 20
4556.6885731205
 30
0.0
 40
6.0
100
AcDbArc
 50
90.0
 51
270.0
  0
LINE
  5
42B
330
1F
100
AcDbEntity
  8
0
  6
Continuous
 62
     7
370
    25
100
AcDbLine
 10
3987.2772790633
 20
4550.6885732606
 30
0.0
 11
3979.2772628508
 21
4550.6885732606
 31
0.0
  0
ARC
  5
42C
330
1F
100
AcDbEntity
  8
0
  6
Continuous
 62
     7
370
    25
100
AcDbCircle
 10
3987.2772304259
 20
4556.6885731205
 30
0.0
 40
6.0
100
AcDbArc
 50
270.0
 51
90.0
  0
LINE
  5
42D
330
1F
100
AcDbEntity
  8
0
  6
Continuous
 62
     7
370
    25
100
AcDbLine
 10
3979.2772628508
 20
4562.6885733649
 30
0.0
 11
3987.2772790633
 21
4562.6885733649
 31
0.0
  0
ARC
  5
42E
330
1F
100
AcDbEntity
  8
0
  6
Continuous
 62
     7
370
    25
100
AcDbCircle
 10
3979.2772304259
 20
4556.6885731205
 30
0.0
 40
6.000000000000909
100
AcDbArc
 50
90.0
 51
270.0
  0
LINE
  5
42F
330
1F
100
AcDbEntity
  8
0
  6
Continuous
 62
     7
370
    25
100
AcDbLine
 10
1949.2772318564
 20
4517.2885722563
 30
0.0
 11
1947.2772576056
 21
4517.2885722563
 31
0.0
  0
LINE
  5
430
330
1F
100
AcDbEntity
  8
0
  6
Continuous
 62
     7
370
    25
100
AcDbLine
 10
1947.2772576056
 20
4459.2885701999
 30
0.0
 11
1949.2772318564
 21
4459.2885701999
 31
0.0
  0
LINE
  5
431
330
1F
100
AcDbEntity
  8
0
  6
Continuous
 62
     7
370
    25
100
AcDbLine
 10
1947.2772576056
 20
4517.2885722563
 30
0.0
 11
1947.2772576056
 21
4459.2885701999
 31
0.0
  0
LINE
  5
432
330
1F
100
AcDbEntity
  8
0
  6
Continuous
 62
     7
370
    25
100
AcDbLine
 10
1949.2772318564
 20
4517.2885722563
 30
0.0
 11
1949.2772318564
 21
4459.2885701999
 31
0.0
  0
LINE
  5
433
330
1F
100
AcDbEntity
  8
0
  6
Continuous
 62
     7
370
    25
100
AcDbLine
 10
1951.2772061072
 20
4521.2885729119
 30
0.0
 11
1951.2772061072
 21
4519.2885725841
 31
0.0
  0
ARC
  5
434
330
1F
100
AcDbEntity
  8
0
  6
Continuous
 62
     7
370
    25
100
AcDbCircle
 10
1951.2772304259
 20
4517.2885731206
 30
0.0
 40
4.000000000000227
100
AcDbArc
 50
90.0
 51
179.9999999998
  0
ARC
  5
435
330
1F
100
AcDbEntity
  8
0
  6
Continuous
 62
     7
370
    25
100
AcDbCircle
 10
1951.2772304259
 20
4517.2885731206
 30
0.0
 40
2.0
100
AcDbArc
 50
90.0
 51
179.9999999997
  0
LINE
  5
436
330
1F
100
AcDbEntity
  8
0
  6
Continuous
 62
     7
370
    25
100
AcDbLine
 10
1975.2772547446
 20
4519.2885725841
 30
0.0
 11
1975.2772547446
 21
4521.2885729119
 31
0.0
  0
LINE
  5
437
330
1F
100
AcDbEntity
  8
0
  6
Continuous
 62
     7
370
    25
100
AcDbLine
 10
1975.2772547446
 20
4521.2885729119
 30
0.0
 11
1951.2772061072
 21
4521.2885729119
 31
0.0
  0
LINE
  5
438
330
1F
100
AcDbEntity
  8
0
  6
Continuous
 62
     7
370
    25
100
AcDbLine
 10
1975.2772547446
 20
4519.2885725841
 30
0.0
 11
1951.2772061072
 21
4519.2885725841
 31
0.0
  0
ARC
  5
439
330
1F
100
AcDbEntity
  8
0
  6
Continuous
 62
     7
370
    25
100
AcDbCircle
 10
1951.2772304259
 20
4459.2885731206
 30
0.0
 40
2.0
100
AcDbArc
 50
180.0
 51
270.0
  0
LINE
  5
43A
330
1F
100
AcDbEntity
  8
0
  6
Continuous
 62
     7
370
    25
100
AcDbLine
 10
1951.2772061072
 20
4457.2885735974
 30
0.0
 11
1951.2772061072
 21
4455.2885695443
 31
0.0
  0
ARC
  5
43B
330
1F
100
AcDbEntity
  8
0
  6
Continuous
 62
     7
370
    25
100
AcDbCircle
 10
1951.2772304259
 20
4459.2885731206
 30
0.0
 40
4.000000000000227
100
AcDbArc
 50
180.0
 51
270.0
  0
LINE
  5
43C
330
1F
100
AcDbEntity
  8
0
  6
Continuous
 62
     7
370
    25
100
AcDbLine
 10
1951.2772061072
 20
4457.2885735974
 30
0.0
 11
2005.2772261344
 21
4457.2885735974
 31
0.0
  0
LINE
  5
43D
330
1F
100
AcDbEntity
  8
0
  6
Continuous
 62
     7
370
    25
100
AcDbLine
 10
2005.2772261344
 20
4455.2885695443
 30
0.0
 11
2005.2772261344
 21
4457.2885735974
 31
0.0
  0
LINE
  5
43E
330
1F
100
AcDbEntity
  8
0
  6
Continuous
 62
     7
370
    25
100
AcDbLine
 10
1951.2772061072
 20
4455.2885695443
 30
0.0
 11
1973.4241463385
 21
4455.2885695443
 31
0.0
  0
LINE
  5
43F
330
1F
100
AcDbEntity
  8
0
  6
Continuous
 62
     7
370
    25
100
AcDbLine
 10
1997.1302844725
 20
4455.2885695443
 30
0.0
 11
2005.2772261344
 21
4455.2885695443
 31
0.0
  0
ARC
  5
440
330
1F
100
AcDbEntity
  8
0
  6
Continuous
 62
     7
370
    25
100
AcDbCircle
 10
1975.2772304259
 20
4517.2885731206
 30
0.0
 40
2.000000000000455
100
AcDbArc
 50
0.0000000003
 51
90.0
  0
ARC
  5
441
330
1F
100
AcDbEntity
  8
0
  6
Continuous
 62
     7
370
    25
100
AcDbCircle
 10
1975.2772304259
 20
4517.2885731206
 30
0.0
 40
4.000000000000227
100
AcDbArc
 50
0.0000000002
 51
90.0
  0
LINE
  5
442
330
1F
100
AcDbEntity
  8
0
  6
Continuous
 62
     7
370
    25
100
AcDbLine
 10
1979.2772032462
 20
4517.2885722563
 30
0.0
 11
1977.2772289954
 21
4517.2885722563
 31
0.0
  0
LINE
  5
443
330
1F
100
AcDbEntity
  8
0
  6
Continuous
 62
     7
370
    25
100
AcDbLine
 10
1979.2772032462
 20
4507.2885743424
 30
0.0
 11
1977.2772289954
 21
4507.2885743424
 31
0.0
  0
LINE
  5
444
330
1F
100
AcDbEntity
  8
0
  6
Continuous
 62
     7
370
    25
100
AcDbLine
 10
1977.2772289954
 20
4507.2885743424
 30
0.0
 11
1977.2772289954
 21
4517.2885722563
 31
0.0
  0
LINE
  5
445
330
1F
100
AcDbEntity
  8
0
  6
Continuous
 62
     7
370
    25
100
AcDbLine
 10
1979.2772032462
 20
4507.2885743424
 30
0.0
 11
1979.2772032462
 21
4517.2885722563
 31
0.0
  0
ARC
  5
446
330
1F
100
AcDbEntity
  8
0
  6
Continuous
 62
     7
370
    25
100
AcDbCircle
 10
2005.2772304259
 20
4459.2885731206
 30
0.0
 40
2.0
100
AcDbArc
 50
270.0
 51
0.0
  0
LINE
  5
447
330
1F
100
AcDbEntity
  8
0
  6
Continuous
 62
     7
370
    25
100
AcDbLine
 10
2007.2772599898
 20
4459.2885701999
 30
0.0
 11
2009.2772342406
 21
4459.2885701999
 31
0.0
  0
ARC
  5
448
330
1F
100
AcDbEntity
  8
0
  6
Continuous
 62
     7
370
    25
100
AcDbCircle
 10
2005.2772304259
 20
4459.2885731206
 30
0.0
 40
4.0
100
AcDbArc
 50
270.0
 51
0.0000000002
  0
LINE
  5
449
330
1F
100
AcDbEntity
  8
0
  6
Continuous
 62
     7
370
    25
100
AcDbLine
 10
2007.2772599898
 20
4469.2885755643
 30
0.0
 11
2009.2772342406
 21
4469.2885755643
 31
0.0
  0
LINE
  5
44A
330
1F
100
AcDbEntity
  8
0
  6
Continuous
 62
     7
370
    25
100
AcDbLine
 10
2009.2772342406
 20
4459.2885701999
 30
0.0
 11
2009.2772342406
 21
4469.2885755643
 31
0.0
  0
LINE
  5
44B
330
1F
100
AcDbEntity
  8
0
  6
Continuous
 62
     7
370
    25
100
AcDbLine
 10
2007.2772599898
 20
4459.2885701999
 30
0.0
 11
2007.2772599898
 21
4469.2885755643
 31
0.0
  0
LINE
  5
44C
330
1F
100
AcDbEntity
  8
0
  6
Continuous
 62
     7
370
    25
100
AcDbLine
 10
3449.2772318564
 20
4517.2885722563
 30
0.0
 11
3447.2772576056
 21
4517.2885722563
 31
0.0
  0
LINE
  5
44D
330
1F
100
AcDbEntity
  8
0
  6
Continuous
 62
     7
370
    25
100
AcDbLine
 10
3449.2772318564
 20
4517.2885722563
 30
0.0
 11
3449.2772318564
 21
4459.2885701999
 31
0.0
  0
LINE
  5
44E
330
1F
100
AcDbEntity
  8
0
  6
Continuous
 62
     7
370
    25
100
AcDbLine
 10
3447.2772576056
 20
4459.2885701999
 30
0.0
 11
3449.2772318564
 21
4459.2885701999
 31
0.0
  0
LINE
  5
44F
330
1F
100
AcDbEntity
  8
0
  6
Continuous
 62
     7
370
    25
100
AcDbLine
 10
3447.2772576056
 20
4517.2885722563
 30
0.0
 11
3447.2772576056
 21
4459.2885701999
 31
0.0
  0
LINE
  5
450
330
1F
100
AcDbEntity
  8
0
  6
Continuous
 62
     7
370
    25
100
AcDbLine
 10
3451.2772061072
 20
4521.2885729119
 30
0.0
 11
3451.2772061072
 21
4519.2885725841
 31
0.0
  0
ARC
  5
451
330
1F
100
AcDbEntity
  8
0
  6
Continuous
 62
     7
370
    25
100
AcDbCircle
 10
3451.2772304259
 20
4517.2885731205
 30
0.0
 40
2.000000000000909
100
AcDbArc
 50
90.0
 51
179.9999999998
  0
ARC
  5
452
330
1F
100
AcDbEntity
  8
0
  6
Continuous
 62
     7
370
    25
100
AcDbCircle
 10
3451.2772304259
 20
4517.2885731205
 30
0.0
 40
4.0
100
AcDbArc
 50
90.0
 51
179.9999999999
  0
LINE
  5
453
330
1F
100
AcDbEntity
  8
0
  6
Continuous
 62
     7
370
    25
100
AcDbLine
 10
3475.2772547446
 20
4519.2885725841
 30
0.0
 11
3475.2772547446
 21
4521.2885729119
 31
0.0
  0
LINE
  5
454
330
1F
100
AcDbEntity
  8
0
  6
Continuous
 62
     7
370
    25
100
AcDbLine
 10
3475.2772547446
 20
4519.2885725841
 30
0.0
 11
3451.2772061072
 21
4519.2885725841
 31
0.0
  0
LINE
  5
455
330
1F
100
AcDbEntity
  8
0
  6
Continuous
 62
     7
370
    25
100
AcDbLine
 10
3475.2772547446
 20
4521.2885729119
 30
0.0
 11
3451.2772061072
 21
4521.2885729119
 31
0.0
  0
LINE
  5
456
330
1F
100
AcDbEntity
  8
0
  6
Continuous
 62
     7
370
    25
100
AcDbLine
 10
3451.2772061072
 20
4457.2885735974
 30
0.0
 11
3451.2772061072
 21
4455.2885695443
 31
0.0
  0
LINE
  5
457
330
1F
100
AcDbEntity
  8
0
  6
Continuous
 62
     7
370
    25
100
AcDbLine
 10
3451.2772061072
 20
4457.2885735974
 30
0.0
 11
3505.2772261344
 21
4457.2885735974
 31
0.0
  0
LINE
  5
458
330
1F
100
AcDbEntity
  8
0
  6
Continuous
 62
     7
370
    25
100
AcDbLine
 10
3505.2772261344
 20
4455.2885695443
 30
0.0
 11
3505.2772261344
 21
4457.2885735974
 31
0.0
  0
LINE
  5
459
330
1F
100
AcDbEntity
  8
0
  6
Continuous
 62
     7
370
    25
100
AcDbLine
 10
3451.2772061072
 20
4455.2885695443
 30
0.0
 11
3473.4241463385
 21
4455.2885695443
 31
0.0
  0
LINE
  5
45A
330
1F
100
AcDbEntity
  8
0
  6
Continuous
 62
     7
370
    25
100
AcDbLine
 10
3497.1302844725
 20
4455.2885695443
 30
0.0
 11
3505.2772261344
 21
4455.2885695443
 31
0.0
  0
ARC
  5
45B
330
1F
100
AcDbEntity
  8
0
  6
Continuous
 62
     7
370
    25
100
AcDbCircle
 10
3451.2772304259
 20
4459.2885731205
 30
0.0
 40
2.000000000000909
100
AcDbArc
 50
180.0
 51
270.0
  0
ARC
  5
45C
330
1F
100
AcDbEntity
  8
0
  6
Continuous
 62
     7
370
    25
100
AcDbCircle
 10
3451.2772304259
 20
4459.2885731205
 30
0.0
 40
4.000000000000909
100
AcDbArc
 50
180.0
 51
269.9999999999
  0
ARC
  5
45D
330
1F
100
AcDbEntity
  8
0
  6
Continuous
 62
     7
370
    25
100
AcDbCircle
 10
3475.2772304259
 20
4517.2885731205
 30
0.0
 40
4.0
100
AcDbArc
 50
0.0000000001
 51
90.0
  0
LINE
  5
45E
330
1F
100
AcDbEntity
  8
0
  6
Continuous
 62
     7
370
    25
100
AcDbLine
 10
3479.2772032462
 20
4517.2885722563
 30
0.0
 11
3477.2772289954
 21
4517.2885722563
 31
0.0
  0
ARC
  5
45F
330
1F
100
AcDbEntity
  8
0
  6
Continuous
 62
     7
370
    25
100
AcDbCircle
 10
3475.2772304259
 20
4517.2885731205
 30
0.0
 40
2.000000000000909
100
AcDbArc
 50
0.0000000002
 51
90.0
  0
LINE
  5
460
330
1F
100
AcDbEntity
  8
0
  6
Continuous
 62
     7
370
    25
100
AcDbLine
 10
3479.2772032462
 20
4507.2885743424
 30
0.0
 11
3477.2772289954
 21
4507.2885743424
 31
0.0
  0
LINE
  5
461
330
1F
100
AcDbEntity
  8
0
  6
Continuous
 62
     7
370
    25
100
AcDbLine
 10
3477.2772289954
 20
4507.2885743424
 30
0.0
 11
3477.2772289954
 21
4517.2885722563
 31
0.0
  0
LINE
  5
462
330
1F
100
AcDbEntity
  8
0
  6
Continuous
 62
     7
370
    25
100
AcDbLine
 10
3479.2772032462
 20
4507.2885743424
 30
0.0
 11
3479.2772032462
 21
4517.2885722563
 31
0.0
  0
ARC
  5
463
330
1F
100
AcDbEntity
  8
0
  6
Continuous
 62
     7
370
    25
100
AcDbCircle
 10
3505.2772304259
 20
4459.2885731205
 30
0.0
 40
2.000000000000909
100
AcDbArc
 50
270.0
 51
0.0
  0
LINE
  5
464
330
1F
100
AcDbEntity
  8
0
  6
Continuous
 62
     7
370
    25
100
AcDbLine
 10
3507.2772599898
 20
4459.2885701999
 30
0.0
 11
3509.2772342406
 21
4459.2885701999
 31
0.0
  0
ARC
  5
465
330
1F
100
AcDbEntity
  8
0
  6
Continuous
 62
     7
370
    25
100
AcDbCircle
 10
3505.2772304259
 20
4459.2885731205
 30
0.0
 40
4.000000000000909
100
AcDbArc
 50
270.0
 51
0.0000000002
  0
LINE
  5
466
330
1F
100
AcDbEntity
  8
0
  6
Continuous
 62
     7
370
    25
100
AcDbLine
 10
3507.2772599898
 20
4459.2885701999
 30
0.0
 11
3507.2772599898
 21
4469.2885755643
 31
0.0
  0
LINE
  5
467
330
1F
100
AcDbEntity
  8
0
  6
Continuous
 62
     7
370
    25
100
AcDbLine
 10
3507.2772599898
 20
4469.2885755643
 30
0.0
 11
3509.2772342406
 21
4469.2885755643
 31
0.0
  0
LINE
  5
468
330
1F
100
AcDbEntity
  8
0
  6
Continuous
 62
     7
370
    25
100
AcDbLine
 10
3509.2772342406
 20
4459.2885701999
 30
0.0
 11
3509.2772342406
 21
4469.2885755643
 31
0.0
  0
LINE
  5
469
330
1F
100
AcDbEntity
  8
0
  6
Continuous
 62
     7
370
    25
100
AcDbLine
 10
2965.277234479
 20
4550.6885732606
 30
0.0
 11
2973.2772208892
 21
4550.6885732606
 31
0.0
  0
ARC
  5
46A
330
1F
100
AcDbEntity
  8
0
  6
Continuous
 62
     7
370
    25
100
AcDbCircle
 10
2973.2772304259
 20
4556.6885731205
 30
0.0
 40
6.0
100
AcDbArc
 50
270.0
 51
90.0
  0
LINE
  5
46B
330
1F
100
AcDbEntity
  8
0
  6
Continuous
 62
     7
370
    25
100
AcDbLine
 10
2965.277234479
 20
4562.6885733649
 30
0.0
 11
2973.2772208892
 21
4562.6885733649
 31
0.0
  0
ARC
  5
46C
330
1F
100
AcDbEntity
  8
0
  6
Continuous
 62
     7
370
    25
100
AcDbCircle
 10
2965.2772304259
 20
4556.6885731205
 30
0.0
 40
6.0
100
AcDbArc
 50
90.0
 51
270.0
  0
ARC
  5
46D
330
1F
100
AcDbEntity
  8
0
  6
Continuous
 62
     7
370
    25
100
AcDbCircle
 10
3515.2772304259
 20
4556.6885731205
 30
0.0
 40
6.0
100
AcDbArc
 50
90.0
 51
270.0
  0
LINE
  5
46E
330
1F
100
AcDbEntity
  8
0
  6
Continuous
 62
     7
370
    25
100
AcDbLine
 10
3523.2772328101
 20
4550.6885732606
 30
0.0
 11
3515.2772165976
 21
4550.6885732606
 31
0.0
  0
ARC
  5
46F
330
1F
100
AcDbEntity
  8
0
  6
Continuous
 62
     7
370
    25
100
AcDbCircle
 10
3523.2772304259
 20
4556.6885731205
 30
0.0
 40
6.0
100
AcDbArc
 50
270.0
 51
90.0
  0
LINE
  5
470
330
1F
100
AcDbEntity
  8
0
  6
Continuous
 62
     7
370
    25
100
AcDbLine
 10
3523.2772328101
 20
4562.6885733649
 30
0.0
 11
3515.2772165976
 21
4562.6885733649
 31
0.0
  0
ARC
  5
471
330
1F
100
AcDbEntity
  8
0
  6
Continuous
 62
     7
370
    25
100
AcDbCircle
 10
3475.2772304259
 20
4556.6885731205
 30
0.0
 40
6.0
100
AcDbArc
 50
90.0
 51
270.0
  0
LINE
  5
472
330
1F
100
AcDbEntity
  8
0
  6
Continuous
 62
     7
370
    25
100
AcDbLine
 10
3483.2772113524
 20
4550.6885732606
 30
0.0
 11
3475.2772547446
 21
4550.6885732606
 31
0.0
  0
ARC
  5
473
330
1F
100
AcDbEntity
  8
0
  6
Continuous
 62
     7
370
    25
100
AcDbCircle
 10
3483.2772304259
 20
4556.6885731205
 30
0.0
 40
6.0
100
AcDbArc
 50
270.0
 51
90.0
  0
LINE
  5
474
330
1F
100
AcDbEntity
  8
0
  6
Continuous
 62
     7
370
    25
100
AcDbLine
 10
3483.2772113524
 20
4562.6885733649
 30
0.0
 11
3475.2772547446
 21
4562.6885733649
 31
0.0
  0
LINE
  5
475
330
1F
100
AcDbEntity
  8
0
  6
Continuous
 62
     7
370
    25
100
AcDbLine
 10
2925.2772279225
 20
4550.6885732606
 30
0.0
 11
2933.2772292338
 21
4550.6885732606
 31
0.0
  0
ARC
  5
476
330
1F
100
AcDbEntity
  8
0
  6
Continuous
 62
     7
370
    25
100
AcDbCircle
 10
2933.2772304259
 20
4556.6885731205
 30
0.0
 40
6.0
100
AcDbArc
 50
270.0
 51
90.0
  0
LINE
  5
477
330
1F
100
AcDbEntity
  8
0
  6
Continuous
 62
     7
370
    25
100
AcDbLine
 10
2925.2772279225
 20
4562.6885733649
 30
0.0
 11
2933.2772292338
 21
4562.6885733649
 31
0.0
  0
ARC
  5
478
330
1F
100
AcDbEntity
  8
0
  6
Continuous
 62
     7
370
    25
100
AcDbCircle
 10
2925.2772304259
 20
4556.6885731205
 30
0.0
 40
6.0
100
AcDbArc
 50
90.0
 51
270.0
  0
ARC
  5
479
330
1F
100
AcDbEntity
  8
0
  6
Continuous
 62
     7
370
    25
100
AcDbCircle
 10
2493.2772304259
 20
4556.6885731205
 30
0.0
 40
6.0
100
AcDbArc
 50
90.0
 51
270.0
  0
LINE
  5
47A
330
1F
100
AcDbEntity
  8
0
  6
Continuous
 62
     7
370
    25
100
AcDbLine
 10
2501.2772329293
 20
4550.6885732606
 30
0.0
 11
2493.277231618
 21
4550.6885732606
 31
0.0
  0
ARC
  5
47B
330
1F
100
AcDbEntity
  8
0
  6
Continuous
 62
     7
370
    25
100
AcDbCircle
 10
2501.2772304259
 20
4556.6885731205
 30
0.0
 40
6.0
100
AcDbArc
 50
270.0
 51
90.0
  0
LINE
  5
47C
330
1F
100
AcDbEntity
  8
0
  6
Continuous
 62
     7
370
    25
100
AcDbLine
 10
2501.2772329293
 20
4562.6885733649
 30
0.0
 11
2493.277231618
 21
4562.6885733649
 31
0.0
  0
ARC
  5
47D
330
1F
100
AcDbEntity
  8
0
  6
Continuous
 62
     7
370
    25
100
AcDbCircle
 10
2453.2772304259
 20
4556.6885731205
 30
0.0
 40
6.0
100
AcDbArc
 50
90.0
 51
270.0
  0
LINE
  5
47E
330
1F
100
AcDbEntity
  8
0
  6
Continuous
 62
     7
370
    25
100
AcDbLine
 10
2461.2772263728
 20
4550.6885732606
 30
0.0
 11
2453.2772399626
 21
4550.6885732606
 31
0.0
  0
ARC
  5
47F
330
1F
100
AcDbEntity
  8
0
  6
Continuous
 62
     7
370
    25
100
AcDbCircle
 10
2461.2772304259
 20
4556.6885731205
 30
0.0
 40
6.0
100
AcDbArc
 50
270.0
 51
90.0
  0
LINE
  5
480
330
1F
100
AcDbEntity
  8
0
  6
Continuous
 62
     7
370
    25
100
AcDbLine
 10
2461.2772263728
 20
4562.6885733649
 30
0.0
 11
2453.2772399626
 21
4562.6885733649
 31
0.0
  0
LINE
  5
481
330
1F
100
AcDbEntity
  8
0
  6
Continuous
 62
     7
370
    25
100
AcDbLine
 10
2413.277218505
 20
4550.6885732606
 30
0.0
 11
2421.2772347174
 21
4550.6885732606
 31
0.0
  0
ARC
  5
482
330
1F
100
AcDbEntity
  8
0
  6
Continuous
 62
     7
370
    25
100
AcDbCircle
 10
2421.2772304259
 20
4556.6885731205
 30
0.0
 40
6.0
100
AcDbArc
 50
270.0
 51
90.0
  0
LINE
  5
483
330
1F
100
AcDbEntity
  8
0
  6
Continuous
 62
     7
370
    25
100
AcDbLine
 10
2413.277218505
 20
4562.6885733649
 30
0.0
 11
2421.2772347174
 21
4562.6885733649
 31
0.0
  0
ARC
  5
484
330
1F
100
AcDbEntity
  8
0
  6
Continuous
 62
     7
370
    25
100
AcDbCircle
 10
2413.2772304259
 20
4556.6885731205
 30
0.0
 40
6.0
100
AcDbArc
 50
90.0
 51
270.0
  0
ARC
  5
485
330
1F
100
AcDbEntity
  8
0
  6
Continuous
 62
     7
370
    25
100
AcDbCircle
 10
3005.2772304259
 20
4556.6885731205
 30
0.0
 40
6.0
100
AcDbArc
 50
90.0
 51
270.0
  0
LINE
  5
486
330
1F
100
AcDbEntity
  8
0
  6
Continuous
 62
     7
370
    25
100
AcDbLine
 10
3013.2772423468
 20
4550.6885732606
 30
0.0
 11
3005.2772261344
 21
4550.6885732606
 31
0.0
  0
ARC
  5
487
330
1F
100
AcDbEntity
  8
0
  6
Continuous
 62
     7
370
    25
100
AcDbCircle
 10
3013.2772304259
 20
4556.6885731205
 30
0.0
 40
6.0
100
AcDbArc
 50
270.0
 51
90.0
  0
LINE
  5
488
330
1F
100
AcDbEntity
  8
0
  6
Continuous
 62
     7
370
    25
100
AcDbLine
 10
3013.2772423468
 20
4562.6885733649
 30
0.0
 11
3005.2772261344
 21
4562.6885733649
 31
0.0
  0
ARC
  5
489
330
1F
100
AcDbEntity
  8
0
  6
Continuous
 62
     7
370
    25
100
AcDbCircle
 10
3555.2772304259
 20
4556.6885731205
 30
0.0
 40
6.0
100
AcDbArc
 50
90.0
 51
270.0
  0
LINE
  5
48A
330
1F
100
AcDbEntity
  8
0
  6
Continuous
 62
     7
370
    25
100
AcDbLine
 10
3563.2772542678
 20
4550.6885732606
 30
0.0
 11
3555.2772380553
 21
4550.6885732606
 31
0.0
  0
ARC
  5
48B
330
1F
100
AcDbEntity
  8
0
  6
Continuous
 62
     7
370
    25
100
AcDbCircle
 10
3563.2772304259
 20
4556.6885731205
 30
0.0
 40
6.0
100
AcDbArc
 50
270.0
 51
90.0
  0
LINE
  5
48C
330
1F
100
AcDbEntity
  8
0
  6
Continuous
 62
     7
370
    25
100
AcDbLine
 10
3563.2772542678
 20
4562.6885733649
 30
0.0
 11
3555.2772380553
 21
4562.6885733649
 31
0.0
  0
LINE
  5
48D
330
1F
100
AcDbEntity
  8
0
  6
Continuous
 62
     7
370
    25
100
AcDbLine
 10
1710.2772094451
 20
4576.2885726139
 30
0.0
 11
1710.2772094451
 21
4525.2885735676
 31
0.0
  0
LINE
  5
48E
330
1F
100
AcDbEntity
  8
0
  6
Continuous
 62
     7
370
    25
100
AcDbLine
 10
3716.2772514067
 20
4576.2885726139
 30
0.0
 11
1710.2772094451
 21
4576.2885726139
 31
0.0
  0
LINE
  5
48F
330
1F
100
AcDbEntity
  8
0
  6
Continuous
 62
     7
370
    25
100
AcDbLine
 10
3716.2772514067
 20
4525.2885735676
 30
0.0
 11
3716.2772514067
 21
4576.2885726139
 31
0.0
  0
LINE
  5
490
330
1F
100
AcDbEntity
  8
0
  6
Continuous
 62
     7
370
    25
100
AcDbLine
 10
3716.2772514067
 20
4525.2885735676
 30
0.0
 11
1710.2772094451
 21
4525.2885735676
 31
0.0
  0
LINE
  5
491
330
1F
100
AcDbEntity
  8
0
  6
Continuous
 62
     7
370
    25
100
AcDbLine
 10
1943.2772494994
 20
4550.6885732606
 30
0.0
 11
1951.2772061072
 21
4550.6885732606
 31
0.0
  0
ARC
  5
492
330
1F
100
AcDbEntity
  8
0
  6
Continuous
 62
     7
370
    25
100
AcDbCircle
 10
1951.2772304259
 20
4556.6885731205
 30
0.0
 40
6.0
100
AcDbArc
 50
270.0
 51
90.0
  0
LINE
  5
493
330
1F
100
AcDbEntity
  8
0
  6
Continuous
 62
     7
370
    25
100
AcDbLine
 10
1943.2772494994
 20
4562.6885733649
 30
0.0
 11
1951.2772061072
 21
4562.6885733649
 31
0.0
  0
ARC
  5
494
330
1F
100
AcDbEntity
  8
0
  6
Continuous
 62
     7
370
    25
100
AcDbCircle
 10
1943.2772304259
 20
4556.6885731205
 30
0.0
 40
6.0
100
AcDbArc
 50
90.0
 51
270.0
  0
LINE
  5
495
330
1F
100
AcDbEntity
  8
0
  6
Continuous
 62
     7
370
    25
100
AcDbLine
 10
1903.2772280417
 20
4550.6885732606
 30
0.0
 11
1911.2772442542
 21
4550.6885732606
 31
0.0
  0
ARC
  5
496
330
1F
100
AcDbEntity
  8
0
  6
Continuous
 62
     7
370
    25
100
AcDbCircle
 10
1911.2772304259
 20
4556.6885731205
 30
0.0
 40
6.0
100
AcDbArc
 50
270.0
 51
90.0
  0
LINE
  5
497
330
1F
100
AcDbEntity
  8
0
  6
Continuous
 62
     7
370
    25
100
AcDbLine
 10
1903.2772280417
 20
4562.6885733649
 30
0.0
 11
1911.2772442542
 21
4562.6885733649
 31
0.0
  0
ARC
  5
498
330
1F
100
AcDbEntity
  8
0
  6
Continuous
 62
     7
370
    25
100
AcDbCircle
 10
1903.2772304259
 20
4556.6885731205
 30
0.0
 40
6.0
100
AcDbArc
 50
90.0
 51
270.0
  0
LINE
  5
499
330
1F
100
AcDbEntity
  8
0
  6
Continuous
 62
     7
370
    25
100
AcDbLine
 10
1863.277206584
 20
4550.6885732606
 30
0.0
 11
1871.2772227965
 21
4550.6885732606
 31
0.0
  0
ARC
  5
49A
330
1F
100
AcDbEntity
  8
0
  6
Continuous
 62
     7
370
    25
100
AcDbCircle
 10
1871.2772304259
 20
4556.6885731205
 30
0.0
 40
6.0
100
AcDbArc
 50
270.0
 51
90.0
  0
LINE
  5
49B
330
1F
100
AcDbEntity
  8
0
  6
Continuous
 62
     7
370
    25
100
AcDbLine
 10
1863.277206584
 20
4562.6885733649
 30
0.0
 11
1871.2772227965
 21
4562.6885733649
 31
0.0
  0
ARC
  5
49C
330
1F
100
AcDbEntity
  8
0
  6
Continuous
 62
     7
370
    25
100
AcDbCircle
 10
1863.2772304259
 20
4556.6885731205
 30
0.0
 40
6.0
100
AcDbArc
 50
90.0
 51
270.0
  0
LINE
  5
49D
330
1F
100
AcDbEntity
  8
0
  6
Continuous
 62
     7
370
    25
100
AcDbLine
 10
3716.2772514067
 20
4525.2885735676
 30
0.0
 11
3716.2772514067
 21
4521.2885729119
 31
0.0
  0
LINE
  5
49E
330
1F
100
AcDbEntity
  8
0
  6
Continuous
 62
     7
370
    25
100
AcDbLine
 10
3716.2772514067
 20
4521.2885729119
 30
0.0
 11
3475.2772547446
 21
4521.2885729119
 31
0.0
  0
LINE
  5
49F
330
1F
100
AcDbEntity
  8
0
  6
Continuous
 62
     7
370
    25
100
AcDbLine
 10
3451.2772061072
 20
4521.2885729119
 30
0.0
 11
1975.2772547446
 21
4521.2885729119
 31
0.0
  0
LINE
  5
4A0
330
1F
100
AcDbEntity
  8
0
  6
Continuous
 62
     7
370
    25
100
AcDbLine
 10
1951.2772061072
 20
4521.2885729119
 30
0.0
 11
1710.2772094451
 21
4521.2885729119
 31
0.0
  0
LINE
  5
4A1
330
1F
100
AcDbEntity
  8
0
  6
Continuous
 62
     7
370
    25
100
AcDbLine
 10
1710.2772094451
 20
4521.2885729119
 30
0.0
 11
1710.2772094451
 21
4525.2885735676
 31
0.0
  0
LINE
  5
4A2
330
1F
100
AcDbEntity
  8
0
  6
Continuous
 62
     7
370
    25
100
AcDbLine
 10
4755.277285739
 20
1458.0419879938
 30
0.0
 11
4755.277285739
 21
1460.041992047
 31
0.0
  0
LINE
  5
4A3
330
1F
100
AcDbEntity
  8
0
  6
Continuous
 62
     7
370
    25
100
AcDbLine
 10
4701.2772657118
 20
1458.0419879938
 30
0.0
 11
4755.277285739
 21
1458.0419879938
 31
0.0
  0
LINE
  5
4A4
330
1F
100
AcDbEntity
  8
0
  6
Continuous
 62
     7
370
    25
100
AcDbLine
 10
4701.2772657118
 20
1460.041992047
 30
0.0
 11
4701.2772657118
 21
1458.0419879938
 31
0.0
  0
LINE
  5
4A5
330
1F
100
AcDbEntity
  8
0
  6
Continuous
 62
     7
370
    25
100
AcDbLine
 10
4701.2772657118
 20
1460.041992047
 30
0.0
 11
4755.277285739
 21
1460.041992047
 31
0.0
  0
ARC
  5
4A6
330
1F
100
AcDbEntity
  8
0
  6
Continuous
 62
     7
370
    25
100
AcDbCircle
 10
4755.2772304259
 20
1456.0419884707
 30
0.0
 40
1.999999999999773
100
AcDbArc
 50
0.0
 51
90.0
  0
LINE
  5
4A7
330
1F
100
AcDbEntity
  8
0
  6
Continuous
 62
     7
370
    25
100
AcDbLine
 10
4759.2772342406
 20
1456.0419913913
 30
0.0
 11
4757.2771407805
 21
1456.0419913913
 31
0.0
  0
ARC
  5
4A8
330
1F
100
AcDbEntity
  8
0
  6
Continuous
 62
     7
370
    25
100
AcDbCircle
 10
4755.2772304259
 20
1456.0419884707
 30
0.0
 40
3.999999999999773
100
AcDbArc
 50
0.0
 51
90.0
  0
LINE
  5
4A9
330
1F
100
AcDbEntity
  8
0
  6
Continuous
 62
     7
370
    25
100
AcDbLine
 10
4757.2771407805
 20
1446.0419860269
 30
0.0
 11
4759.2772342406
 21
1446.0419860269
 31
0.0
  0
LINE
  5
4AA
330
1F
100
AcDbEntity
  8
0
  6
Continuous
 62
     7
370
    25
100
AcDbLine
 10
4757.2771407805
 20
1456.0419913913
 30
0.0
 11
4757.2771407805
 21
1446.0419860269
 31
0.0
  0
LINE
  5
4AB
330
1F
100
AcDbEntity
  8
0
  6
Continuous
 62
     7
370
    25
100
AcDbLine
 10
4759.2772342406
 20
1456.0419913913
 30
0.0
 11
4759.2772342406
 21
1446.0419860269
 31
0.0
  0
LINE
  5
4AC
330
1F
100
AcDbEntity
  8
0
  6
Continuous
 62
     7
370
    25
100
AcDbLine
 10
4699.2771722518
 20
1456.0419913913
 30
0.0
 11
4697.277198001
 21
1456.0419913913
 31
0.0
  0
LINE
  5
4AD
330
1F
100
AcDbEntity
  8
0
  6
Continuous
 62
     7
370
    25
100
AcDbLine
 10
4697.277198001
 20
1398.0419893349
 30
0.0
 11
4699.2771722518
 21
1398.0419893349
 31
0.0
  0
LINE
  5
4AE
330
1F
100
AcDbEntity
  8
0
  6
Continuous
 62
     7
370
    25
100
AcDbLine
 10
4699.2771722518
 20
1398.0419893349
 30
0.0
 11
4699.2771722518
 21
1456.0419913913
 31
0.0
  0
LINE
  5
4AF
330
1F
100
AcDbEntity
  8
0
  6
Continuous
 62
     7
370
    25
100
AcDbLine
 10
4697.277198001
 20
1398.0419893349
 30
0.0
 11
4697.277198001
 21
1456.0419913913
 31
0.0
  0
ARC
  5
4B0
330
1F
100
AcDbEntity
  8
0
  6
Continuous
 62
     7
370
    25
100
AcDbCircle
 10
4701.2772304259
 20
1456.0419884707
 30
0.0
 40
4.000000000000909
100
AcDbArc
 50
90.0
 51
180.0
  0
ARC
  5
4B1
330
1F
100
AcDbEntity
  8
0
  6
Continuous
 62
     7
370
    25
100
AcDbCircle
 10
4701.2772304259
 20
1456.0419884707
 30
0.0
 40
2.0
100
AcDbArc
 50
90.0
 51
180.0
  0
LINE
  5
4B2
330
1F
100
AcDbEntity
  8
0
  6
Continuous
 62
     7
370
    25
100
AcDbLine
 10
4727.2771693907
 20
1398.0419893349
 30
0.0
 11
4729.2772628508
 21
1398.0419893349
 31
0.0
  0
LINE
  5
4B3
330
1F
100
AcDbEntity
  8
0
  6
Continuous
 62
     7
370
    25
100
AcDbLine
 10
4729.2772628508
 20
1408.0419872488
 30
0.0
 11
4729.2772628508
 21
1398.0419893349
 31
0.0
  0
LINE
  5
4B4
330
1F
100
AcDbEntity
  8
0
  6
Continuous
 62
     7
370
    25
100
AcDbLine
 10
4729.2772628508
 20
1408.0419872488
 30
0.0
 11
4727.2771693907
 21
1408.0419872488
 31
0.0
  0
LINE
  5
4B5
330
1F
100
AcDbEntity
  8
0
  6
Continuous
 62
     7
370
    25
100
AcDbLine
 10
4727.2771693907
 20
1408.0419872488
 30
0.0
 11
4727.2771693907
 21
1398.0419893349
 31
0.0
  0
LINE
  5
4B6
330
1F
100
AcDbEntity
  8
0
  6
Continuous
 62
     7
370
    25
100
AcDbLine
 10
4701.2772657118
 20
1396.0419890071
 30
0.0
 11
4701.2772657118
 21
1394.0419886793
 31
0.0
  0
LINE
  5
4B7
330
1F
100
AcDbEntity
  8
0
  6
Continuous
 62
     7
370
    25
100
AcDbLine
 10
4725.2773143492
 20
1396.0419890071
 30
0.0
 11
4701.2772657118
 21
1396.0419890071
 31
0.0
  0
LINE
  5
4B8
330
1F
100
AcDbEntity
  8
0
  6
Continuous
 62
     7
370
    25
100
AcDbLine
 10
4725.2773143492
 20
1394.0419886793
 30
0.0
 11
4725.2773143492
 21
1396.0419890071
 31
0.0
  0
LINE
  5
4B9
330
1F
100
AcDbEntity
  8
0
  6
Continuous
 62
     7
370
    25
100
AcDbLine
 10
4725.2773143492
 20
1394.0419886793
 30
0.0
 11
4701.2772657118
 21
1394.0419886793
 31
0.0
  0
ARC
  5
4BA
330
1F
100
AcDbEntity
  8
0
  6
Continuous
 62
     7
370
    25
100
AcDbCircle
 10
4701.2772304259
 20
1398.0419884707
 30
0.0
 40
2.0
100
AcDbArc
 50
180.0
 51
270.0
  0
ARC
  5
4BB
330
1F
100
AcDbEntity
  8
0
  6
Continuous
 62
     7
370
    25
100
AcDbCircle
 10
4701.2772304259
 20
1398.0419884707
 30
0.0
 40
4.000000000000909
100
AcDbArc
 50
180.0
 51
270.0
  0
ARC
  5
4BC
330
1F
100
AcDbEntity
  8
0
  6
Continuous
 62
     7
370
    25
100
AcDbCircle
 10
4725.2772304259
 20
1398.0419884707
 30
0.0
 40
2.0
100
AcDbArc
 50
270.0
 51
0.0
  0
ARC
  5
4BD
330
1F
100
AcDbEntity
  8
0
  6
Continuous
 62
     7
370
    25
100
AcDbCircle
 10
4725.2772304259
 20
1398.0419884707
 30
0.0
 40
4.0
100
AcDbArc
 50
270.0
 51
0.0
  0
LINE
  5
4BE
330
1F
100
AcDbEntity
  8
0
  6
Continuous
 62
     7
370
    25
100
AcDbLine
 10
4005.277285739
 20
1458.0419879938
 30
0.0
 11
4005.277285739
 21
1460.041992047
 31
0.0
  0
LINE
  5
4BF
330
1F
100
AcDbEntity
  8
0
  6
Continuous
 62
     7
370
    25
100
AcDbLine
 10
3951.2772657118
 20
1460.041992047
 30
0.0
 11
3951.2772657118
 21
1458.0419879938
 31
0.0
  0
LINE
  5
4C0
330
1F
100
AcDbEntity
  8
0
  6
Continuous
 62
     7
370
    25
100
AcDbLine
 10
3951.2772657118
 20
1458.0419879938
 30
0.0
 11
4005.277285739
 21
1458.0419879938
 31
0.0
  0
LINE
  5
4C1
330
1F
100
AcDbEntity
  8
0
  6
Continuous
 62
     7
370
    25
100
AcDbLine
 10
3951.2772657118
 20
1460.041992047
 30
0.0
 11
4005.277285739
 21
1460.041992047
 31
0.0
  0
LINE
  5
4C2
330
1F
100
AcDbEntity
  8
0
  6
Continuous
 62
     7
370
    25
100
AcDbLine
 10
4009.2772342406
 20
1456.0419913913
 30
0.0
 11
4007.2772599898
 21
1456.0419913913
 31
0.0
  0
LINE
  5
4C3
330
1F
100
AcDbEntity
  8
0
  6
Continuous
 62
     7
370
    25
100
AcDbLine
 10
4007.2772599898
 20
1446.0419860269
 30
0.0
 11
4009.2772342406
 21
1446.0419860269
 31
0.0
  0
LINE
  5
4C4
330
1F
100
AcDbEntity
  8
0
  6
Continuous
 62
     7
370
    25
100
AcDbLine
 10
4007.2772599898
 20
1456.0419913913
 30
0.0
 11
4007.2772599898
 21
1446.0419860269
 31
0.0
  0
LINE
  5
4C5
330
1F
100
AcDbEntity
  8
0
  6
Continuous
 62
     7
370
    25
100
AcDbLine
 10
4009.2772342406
 20
1456.0419913913
 30
0.0
 11
4009.2772342406
 21
1446.0419860269
 31
0.0
  0
ARC
  5
4C6
330
1F
100
AcDbEntity
  8
0
  6
Continuous
 62
     7
370
    25
100
AcDbCircle
 10
4005.2772304259
 20
1456.0419884707
 30
0.0
 40
2.0
100
AcDbArc
 50
0.0
 51
90.0
  0
ARC
  5
4C7
330
1F
100
AcDbEntity
  8
0
  6
Continuous
 62
     7
370
    25
100
AcDbCircle
 10
4005.2772304259
 20
1456.0419884707
 30
0.0
 40
4.000000000000227
100
AcDbArc
 50
0.0
 51
90.0
  0
ARC
  5
4C8
330
1F
100
AcDbEntity
  8
0
  6
Continuous
 62
     7
370
    25
100
AcDbCircle
 10
3951.2772304259
 20
1456.0419884707
 30
0.0
 40
2.000000000000455
100
AcDbArc
 50
90.0
 51
180.0
  0
LINE
  5
4C9
330
1F
100
AcDbEntity
  8
0
  6
Continuous
 62
     7
370
    25
100
AcDbLine
 10
3949.2771722518
 20
1456.0419913913
 30
0.0
 11
3947.277198001
 21
1456.0419913913
 31
0.0
  0
ARC
  5
4CA
330
1F
100
AcDbEntity
  8
0
  6
Continuous
 62
     7
370
    25
100
AcDbCircle
 10
3951.2772304259
 20
1456.0419884707
 30
0.0
 40
4.0
100
AcDbArc
 50
90.0
 51
180.0
  0
LINE
  5
4CB
330
1F
100
AcDbEntity
  8
0
  6
Continuous
 62
     7
370
    25
100
AcDbLine
 10
3947.277198001
 20
1398.0419893349
 30
0.0
 11
3949.2771722518
 21
1398.0419893349
 31
0.0
  0
LINE
  5
4CC
330
1F
100
AcDbEntity
  8
0
  6
Continuous
 62
     7
370
    25
100
AcDbLine
 10
3947.277198001
 20
1398.0419893349
 30
0.0
 11
3947.277198001
 21
1456.0419913913
 31
0.0
  0
LINE
  5
4CD
330
1F
100
AcDbEntity
  8
0
  6
Continuous
 62
     7
370
    25
100
AcDbLine
 10
3949.2771722518
 20
1398.0419893349
 30
0.0
 11
3949.2771722518
 21
1456.0419913913
 31
0.0
  0
ARC
  5
4CE
330
1F
100
AcDbEntity
  8
0
  6
Continuous
 62
     7
370
    25
100
AcDbCircle
 10
3951.2772304259
 20
1398.0419884707
 30
0.0
 40
2.000000000000455
100
AcDbArc
 50
180.0
 51
270.0
  0
LINE
  5
4CF
330
1F
100
AcDbEntity
  8
0
  6
Continuous
 62
     7
370
    25
100
AcDbLine
 10
3951.2772657118
 20
1396.0419890071
 30
0.0
 11
3951.2772657118
 21
1394.0419886793
 31
0.0
  0
ARC
  5
4D0
330
1F
100
AcDbEntity
  8
0
  6
Continuous
 62
     7
370
    25
100
AcDbCircle
 10
3951.2772304259
 20
1398.0419884707
 30
0.0
 40
4.000000000000227
100
AcDbArc
 50
180.0
 51
270.0
  0
LINE
  5
4D1
330
1F
100
AcDbEntity
  8
0
  6
Continuous
 62
     7
370
    25
100
AcDbLine
 10
3979.2772628508
 20
1408.0419872488
 30
0.0
 11
3979.2772628508
 21
1398.0419893349
 31
0.0
  0
LINE
  5
4D2
330
1F
100
AcDbEntity
  8
0
  6
Continuous
 62
     7
370
    25
100
AcDbLine
 10
3977.2772886
 20
1398.0419893349
 30
0.0
 11
3979.2772628508
 21
1398.0419893349
 31
0.0
  0
LINE
  5
4D3
330
1F
100
AcDbEntity
  8
0
  6
Continuous
 62
     7
370
    25
100
AcDbLine
 10
3979.2772628508
 20
1408.0419872488
 30
0.0
 11
3977.2772886
 21
1408.0419872488
 31
0.0
  0
LINE
  5
4D4
330
1F
100
AcDbEntity
  8
0
  6
Continuous
 62
     7
370
    25
100
AcDbLine
 10
3977.2772886
 20
1408.0419872488
 30
0.0
 11
3977.2772886
 21
1398.0419893349
 31
0.0
  0
ARC
  5
4D5
330
1F
100
AcDbEntity
  8
0
  6
Continuous
 62
     7
370
    25
100
AcDbCircle
 10
3975.2772304259
 20
1398.0419884707
 30
0.0
 40
4.000000000000455
100
AcDbArc
 50
270.0
 51
0.0
  0
LINE
  5
4D6
330
1F
100
AcDbEntity
  8
0
  6
Continuous
 62
     7
370
    25
100
AcDbLine
 10
3975.2771951399
 20
1394.0419886793
 30
0.0
 11
3975.2771951399
 21
1396.0419890071
 31
0.0
  0
ARC
  5
4D7
330
1F
100
AcDbEntity
  8
0
  6
Continuous
 62
     7
370
    25
100
AcDbCircle
 10
3975.2772304259
 20
1398.0419884707
 30
0.0
 40
2.000000000000455
100
AcDbArc
 50
270.0
 51
0.0
  0
LINE
  5
4D8
330
1F
100
AcDbEntity
  8
0
  6
Continuous
 62
     7
370
    25
100
AcDbLine
 10
3975.2771951399
 20
1394.0419886793
 30
0.0
 11
3951.2772657118
 21
1394.0419886793
 31
0.0
  0
LINE
  5
4D9
330
1F
100
AcDbEntity
  8
0
  6
Continuous
 62
     7
370
    25
100
AcDbLine
 10
3975.2771951399
 20
1396.0419890071
 30
0.0
 11
3951.2772657118
 21
1396.0419890071
 31
0.0
  0
LINE
  5
4DA
330
1F
100
AcDbEntity
  8
0
  6
Continuous
 62
     7
370
    25
100
AcDbLine
 10
4843.2773448668
 20
1394.0419886793
 30
0.0
 11
4843.2773448668
 21
1390.0419880236
 31
0.0
  0
LINE
  5
4DB
330
1F
100
AcDbEntity
  8
0
  6
Continuous
 62
     7
370
    25
100
AcDbLine
 10
3833.2772351943
 20
1390.0419880236
 30
0.0
 11
4843.2773448668
 21
1390.0419880236
 31
0.0
  0
LINE
  5
4DC
330
1F
100
AcDbEntity
  8
0
  6
Continuous
 62
     7
370
    25
100
AcDbLine
 10
3833.2772351943
 20
1394.0419886793
 30
0.0
 11
3951.2772657118
 21
1394.0419886793
 31
0.0
  0
LINE
  5
4DD
330
1F
100
AcDbEntity
  8
0
  6
Continuous
 62
     7
370
    25
100
AcDbLine
 10
3975.2771951399
 20
1394.0419886793
 30
0.0
 11
4701.2772657118
 21
1394.0419886793
 31
0.0
  0
LINE
  5
4DE
330
1F
100
AcDbEntity
  8
0
  6
Continuous
 62
     7
370
    25
100
AcDbLine
 10
4725.2773143492
 20
1394.0419886793
 30
0.0
 11
4843.2773448668
 21
1394.0419886793
 31
0.0
  0
LINE
  5
4DF
330
1F
100
AcDbEntity
  8
0
  6
Continuous
 62
     7
370
    25
100
AcDbLine
 10
3833.2772351943
 20
1390.0419880236
 30
0.0
 11
3833.2772351943
 21
1394.0419886793
 31
0.0
  0
LINE
  5
4E0
330
1F
100
AcDbEntity
  8
0
  6
Continuous
 62
     7
370
    25
100
AcDbLine
 10
3987.2772790633
 20
1352.6419882263
 30
0.0
 11
3979.2772628508
 21
1352.6419882263
 31
0.0
  0
ARC
  5
4E1
330
1F
100
AcDbEntity
  8
0
  6
Continuous
 62
     7
370
    25
100
AcDbCircle
 10
3987.2772304259
 20
1358.6419884707
 30
0.0
 40
6.000000000000455
100
AcDbArc
 50
270.0
 51
90.0
  0
LINE
  5
4E2
330
1F
100
AcDbEntity
  8
0
  6
Continuous
 62
     7
370
    25
100
AcDbLine
 10
3979.2772628508
 20
1364.6419883306
 30
0.0
 11
3987.2772790633
 21
1364.6419883306
 31
0.0
  0
ARC
  5
4E3
330
1F
100
AcDbEntity
  8
0
  6
Continuous
 62
     7
370
    25
100
AcDbCircle
 10
3979.2772304259
 20
1358.6419884707
 30
0.0
 40
6.000000000000227
100
AcDbArc
 50
90.0
 51
270.0
  0
LINE
  5
4E4
330
1F
100
AcDbEntity
  8
0
  6
Continuous
 62
     7
370
    25
100
AcDbLine
 10
4027.2772409163
 20
1352.6419882263
 30
0.0
 11
4019.2772247039
 21
1352.6419882263
 31
0.0
  0
ARC
  5
4E5
330
1F
100
AcDbEntity
  8
0
  6
Continuous
 62
     7
370
    25
100
AcDbCircle
 10
4027.2772304259
 20
1358.6419884707
 30
0.0
 40
6.000000000000227
100
AcDbArc
 50
270.0
 51
90.0
  0
LINE
  5
4E6
330
1F
100
AcDbEntity
  8
0
  6
Continuous
 62
     7
370
    25
100
AcDbLine
 10
4019.2772247039
 20
1364.6419883306
 30
0.0
 11
4027.2772409163
 21
1364.6419883306
 31
0.0
  0
ARC
  5
4E7
330
1F
100
AcDbEntity
  8
0
  6
Continuous
 62
     7
370
    25
100
AcDbCircle
 10
4019.2772304259
 20
1358.6419884707
 30
0.0
 40
6.000000000000455
100
AcDbArc
 50
90.0
 51
270.0
  0
LINE
  5
4E8
330
1F
100
AcDbEntity
  8
0
  6
Continuous
 62
     7
370
    25
100
AcDbLine
 10
4067.2772027693
 20
1346.0419882621
 30
0.0
 11
4059.2771865569
 21
1346.0419882621
 31
0.0
  0
ARC
  5
4E9
330
1F
100
AcDbEntity
  8
0
  6
Continuous
 62
     7
370
    25
100
AcDbCircle
 10
4067.2772304259
 20
1352.0419884707
 30
0.0
 40
6.000000000000455
100
AcDbArc
 50
270.0
 51
90.0
  0
LINE
  5
4EA
330
1F
100
AcDbEntity
  8
0
  6
Continuous
 62
     7
370
    25
100
AcDbLine
 10
4059.2771865569
 20
1358.0419883664
 30
0.0
 11
4067.2772027693
 21
1358.0419883664
 31
0.0
  0
ARC
  5
4EB
330
1F
100
AcDbEntity
  8
0
  6
Continuous
 62
     7
370
    25
100
AcDbCircle
 10
4059.2772304259
 20
1352.0419884707
 30
0.0
 40
6.000000000000909
100
AcDbArc
 50
90.0
 51
270.0
  0
LINE
  5
4EC
330
1F
100
AcDbEntity
  8
0
  6
Continuous
 62
     7
370
    25
100
AcDbLine
 10
4334.2772819243
 20
1358.0419883664
 30
0.0
 11
4342.2771789275
 21
1358.0419883664
 31
0.0
  0
ARC
  5
4ED
330
1F
100
AcDbEntity
  8
0
  6
Continuous
 62
     7
370
    25
100
AcDbCircle
 10
4334.2772304259
 20
1352.0419884707
 30
0.0
 40
6.0
100
AcDbArc
 50
90.0
 51
270.0
  0
LINE
  5
4EE
330
1F
100
AcDbEntity
  8
0
  6
Continuous
 62
     7
370
    25
100
AcDbLine
 10
4342.2771789275
 20
1346.0419882621
 30
0.0
 11
4334.2772819243
 21
1346.0419882621
 31
0.0
  0
ARC
  5
4EF
330
1F
100
AcDbEntity
  8
0
  6
Continuous
 62
     7
370
    25
100
AcDbCircle
 10
4342.2772304259
 20
1352.0419884707
 30
0.0
 40
6.000000000000455
100
AcDbArc
 50
270.0
 51
90.0
  0
LINE
  5
4F0
330
1F
100
AcDbEntity
  8
0
  6
Continuous
 62
     7
370
    25
100
AcDbLine
 10
4843.2773448668
 20
1339.0419889773
 30
0.0
 11
4843.2773448668
 21
1390.0419880236
 31
0.0
  0
LINE
  5
4F1
330
1F
100
AcDbEntity
  8
0
  6
Continuous
 62
     7
370
    25
100
AcDbLine
 10
3833.2772351943
 20
1339.0419889773
 30
0.0
 11
4843.2773448668
 21
1339.0419889773
 31
0.0
  0
LINE
  5
4F2
330
1F
100
AcDbEntity
  8
0
  6
Continuous
 62
     7
370
    25
100
AcDbLine
 10
3833.2772351943
 20
1390.0419880236
 30
0.0
 11
3833.2772351943
 21
1339.0419889773
 31
0.0
  0
LINE
  5
4F3
330
1F
100
AcDbEntity
  8
0
  6
Continuous
 62
     7
370
    25
100
AcDbLine
 10
4609.2772580825
 20
1358.0419883664
 30
0.0
 11
4617.2772742949
 21
1358.0419883664
 31
0.0
  0
ARC
  5
4F4
330
1F
100
AcDbEntity
  8
0
  6
Continuous
 62
     7
370
    25
100
AcDbCircle
 10
4609.2772304259
 20
1352.0419884707
 30
0.0
 40
6.000000000000455
100
AcDbArc
 50
90.0
 51
270.0
  0
LINE
  5
4F5
330
1F
100
AcDbEntity
  8
0
  6
Continuous
 62
     7
370
    25
100
AcDbLine
 10
4617.2772742949
 20
1346.0419882621
 30
0.0
 11
4609.2772580825
 21
1346.0419882621
 31
0.0
  0
ARC
  5
4F6
330
1F
100
AcDbEntity
  8
0
  6
Continuous
 62
     7
370
    25
100
AcDbCircle
 10
4617.2772304259
 20
1352.0419884707
 30
0.0
 40
6.000000000001137
100
AcDbArc
 50
270.0
 51
90.0
  0
LINE
  5
4F7
330
1F
100
AcDbEntity
  8
0
  6
Continuous
 62
     7
370
    25
100
AcDbLine
 10
4649.2772199355
 20
1364.6419883306
 30
0.0
 11
4657.2772361479
 21
1364.6419883306
 31
0.0
  0
ARC
  5
4F8
330
1F
100
AcDbEntity
  8
0
  6
Continuous
 62
     7
370
    25
100
AcDbCircle
 10
4649.2772304259
 20
1358.6419884707
 30
0.0
 40
6.000000000000227
100
AcDbArc
 50
90.0
 51
270.0
  0
LINE
  5
4F9
330
1F
100
AcDbEntity
  8
0
  6
Continuous
 62
     7
370
    25
100
AcDbLine
 10
4657.2772361479
 20
1352.6419882263
 30
0.0
 11
4649.2772199355
 21
1352.6419882263
 31
0.0
  0
ARC
  5
4FA
330
1F
100
AcDbEntity
  8
0
  6
Continuous
 62
     7
370
    25
100
AcDbCircle
 10
4657.2772304259
 20
1358.6419884707
 30
0.0
 40
6.000000000000227
100
AcDbArc
 50
270.0
 51
90.0
  0
LINE
  5
4FB
330
1F
100
AcDbEntity
  8
0
  6
Continuous
 62
     7
370
    25
100
AcDbLine
 10
4689.2771817885
 20
1364.6419883306
 30
0.0
 11
4697.277198001
 21
1364.6419883306
 31
0.0
  0
ARC
  5
4FC
330
1F
100
AcDbEntity
  8
0
  6
Continuous
 62
     7
370
    25
100
AcDbCircle
 10
4689.2772304259
 20
1358.6419884707
 30
0.0
 40
6.000000000000227
100
AcDbArc
 50
90.0
 51
270.0
  0
LINE
  5
4FD
330
1F
100
AcDbEntity
  8
0
  6
Continuous
 62
     7
370
    25
100
AcDbLine
 10
4697.277198001
 20
1352.6419882263
 30
0.0
 11
4689.2771817885
 21
1352.6419882263
 31
0.0
  0
ARC
  5
4FE
330
1F
100
AcDbEntity
  8
0
  6
Continuous
 62
     7
370
    25
100
AcDbCircle
 10
4697.2772304259
 20
1358.6419884707
 30
0.0
 40
6.000000000000227
100
AcDbArc
 50
270.0
 51
90.0
  0
LINE
  5
4FF
330
1F
100
AcDbEntity
  8
0
  6
Continuous
 62
     7
370
    25
100
AcDbLine
 10
3507.2772599898
 20
1456.0419913913
 30
0.0
 11
3507.2772599898
 21
1446.0419860269
 31
0.0
  0
LINE
  5
500
330
1F
100
AcDbEntity
  8
0
  6
Continuous
 62
     7
370
    25
100
AcDbLine
 10
3509.2772342406
 20
1456.0419913913
 30
0.0
 11
3507.2772599898
 21
1456.0419913913
 31
0.0
  0
LINE
  5
501
330
1F
100
AcDbEntity
  8
0
  6
Continuous
 62
     7
370
    25
100
AcDbLine
 10
3509.2772342406
 20
1456.0419913913
 30
0.0
 11
3509.2772342406
 21
1446.0419860269
 31
0.0
  0
LINE
  5
502
330
1F
100
AcDbEntity
  8
0
  6
Continuous
 62
     7
370
    25
100
AcDbLine
 10
3507.2772599898
 20
1446.0419860269
 30
0.0
 11
3509.2772342406
 21
1446.0419860269
 31
0.0
  0
ARC
  5
503
330
1F
100
AcDbEntity
  8
0
  6
Continuous
 62
     7
370
    25
100
AcDbCircle
 10
3505.2772304259
 20
1456.0419884707
 30
0.0
 40
2.0
100
AcDbArc
 50
0.0
 51
90.0
  0
LINE
  5
504
330
1F
100
AcDbEntity
  8
0
  6
Continuous
 62
     7
370
    25
100
AcDbLine
 10
3505.2772261344
 20
1458.0419879938
 30
0.0
 11
3505.2772261344
 21
1460.041992047
 31
0.0
  0
ARC
  5
505
330
1F
100
AcDbEntity
  8
0
  6
Continuous
 62
     7
370
    25
100
AcDbCircle
 10
3505.2772304259
 20
1456.0419884707
 30
0.0
 40
4.0
100
AcDbArc
 50
0.0
 51
90.0
  0
LINE
  5
506
330
1F
100
AcDbEntity
  8
0
  6
Continuous
 62
     7
370
    25
100
AcDbLine
 10
3451.2772061072
 20
1460.041992047
 30
0.0
 11
3451.2772061072
 21
1458.0419879938
 31
0.0
  0
LINE
  5
507
330
1F
100
AcDbEntity
  8
0
  6
Continuous
 62
     7
370
    25
100
AcDbLine
 10
3451.2772061072
 20
1458.0419879938
 30
0.0
 11
3505.2772261344
 21
1458.0419879938
 31
0.0
  0
LINE
  5
508
330
1F
100
AcDbEntity
  8
0
  6
Continuous
 62
     7
370
    25
100
AcDbLine
 10
3451.2772061072
 20
1460.041992047
 30
0.0
 11
3505.2772261344
 21
1460.041992047
 31
0.0
  0
ARC
  5
509
330
1F
100
AcDbEntity
  8
0
  6
Continuous
 62
     7
370
    25
100
AcDbCircle
 10
3451.2772304259
 20
1456.0419884707
 30
0.0
 40
2.0
100
AcDbArc
 50
90.0
 51
180.0
  0
LINE
  5
50A
330
1F
100
AcDbEntity
  8
0
  6
Continuous
 62
     7
370
    25
100
AcDbLine
 10
3449.2772318564
 20
1456.0419913913
 30
0.0
 11
3447.2772576056
 21
1456.0419913913
 31
0.0
  0
ARC
  5
50B
330
1F
100
AcDbEntity
  8
0
  6
Continuous
 62
     7
370
    25
100
AcDbCircle
 10
3451.2772304259
 20
1456.0419884707
 30
0.0
 40
4.000000000000227
100
AcDbArc
 50
90.0
 51
180.0
  0
LINE
  5
50C
330
1F
100
AcDbEntity
  8
0
  6
Continuous
 62
     7
370
    25
100
AcDbLine
 10
3449.2772318564
 20
1398.0419893349
 30
0.0
 11
3449.2772318564
 21
1456.0419913913
 31
0.0
  0
LINE
  5
50D
330
1F
100
AcDbEntity
  8
0
  6
Continuous
 62
     7
370
    25
100
AcDbLine
 10
3447.2772576056
 20
1398.0419893349
 30
0.0
 11
3449.2772318564
 21
1398.0419893349
 31
0.0
  0
LINE
  5
50E
330
1F
100
AcDbEntity
  8
0
  6
Continuous
 62
     7
370
    25
100
AcDbLine
 10
3447.2772576056
 20
1398.0419893349
 30
0.0
 11
3447.2772576056
 21
1456.0419913913
 31
0.0
  0
LINE
  5
50F
330
1F
100
AcDbEntity
  8
0
  6
Continuous
 62
     7
370
    25
100
AcDbLine
 10
3479.2772032462
 20
1408.0419872488
 30
0.0
 11
3477.2772289954
 21
1408.0419872488
 31
0.0
  0
LINE
  5
510
330
1F
100
AcDbEntity
  8
0
  6
Continuous
 62
     7
370
    25
100
AcDbLine
 10
3479.2772032462
 20
1408.0419872488
 30
0.0
 11
3479.2772032462
 21
1398.0419893349
 31
0.0
  0
LINE
  5
511
330
1F
100
AcDbEntity
  8
0
  6
Continuous
 62
     7
370
    25
100
AcDbLine
 10
3477.2772289954
 20
1398.0419893349
 30
0.0
 11
3479.2772032462
 21
1398.0419893349
 31
0.0
  0
LINE
  5
512
330
1F
100
AcDbEntity
  8
0
  6
Continuous
 62
     7
370
    25
100
AcDbLine
 10
3477.2772289954
 20
1408.0419872488
 30
0.0
 11
3477.2772289954
 21
1398.0419893349
 31
0.0
  0
LINE
  5
513
330
1F
100
AcDbEntity
  8
0
  6
Continuous
 62
     7
370
    25
100
AcDbLine
 10
3451.2772061072
 20
1396.0419890071
 30
0.0
 11
3451.2772061072
 21
1394.0419886793
 31
0.0
  0
ARC
  5
514
330
1F
100
AcDbEntity
  8
0
  6
Continuous
 62
     7
370
    25
100
AcDbCircle
 10
3451.2772304259
 20
1398.0419884707
 30
0.0
 40
2.0
100
AcDbArc
 50
180.0
 51
270.0
  0
ARC
  5
515
330
1F
100
AcDbEntity
  8
0
  6
Continuous
 62
     7
370
    25
100
AcDbCircle
 10
3451.2772304259
 20
1398.0419884707
 30
0.0
 40
4.0
100
AcDbArc
 50
180.0
 51
270.0
  0
LINE
  5
516
330
1F
100
AcDbEntity
  8
0
  6
Continuous
 62
     7
370
    25
100
AcDbLine
 10
3475.2772547446
 20
1394.0419886793
 30
0.0
 11
3475.2772547446
 21
1396.0419890071
 31
0.0
  0
LINE
  5
517
330
1F
100
AcDbEntity
  8
0
  6
Continuous
 62
     7
370
    25
100
AcDbLine
 10
3475.2772547446
 20
1394.0419886793
 30
0.0
 11
3451.2772061072
 21
1394.0419886793
 31
0.0
  0
LINE
  5
518
330
1F
100
AcDbEntity
  8
0
  6
Continuous
 62
     7
370
    25
100
AcDbLine
 10
3475.2772547446
 20
1396.0419890071
 30
0.0
 11
3451.2772061072
 21
1396.0419890071
 31
0.0
  0
ARC
  5
519
330
1F
100
AcDbEntity
  8
0
  6
Continuous
 62
     7
370
    25
100
AcDbCircle
 10
3475.2772304259
 20
1398.0419884707
 30
0.0
 40
2.000000000000455
100
AcDbArc
 50
270.0
 51
0.0
  0
ARC
  5
51A
330
1F
100
AcDbEntity
  8
0
  6
Continuous
 62
     7
370
    25
100
AcDbCircle
 10
3475.2772304259
 20
1398.0419884707
 30
0.0
 40
4.000000000000455
100
AcDbArc
 50
270.0
 51
0.0
  0
LINE
  5
51B
330
1F
100
AcDbEntity
  8
0
  6
Continuous
 62
     7
370
    25
100
AcDbLine
 10
2005.2772261344
 20
1458.0419879938
 30
0.0
 11
2005.2772261344
 21
1460.041992047
 31
0.0
  0
LINE
  5
51C
330
1F
100
AcDbEntity
  8
0
  6
Continuous
 62
     7
370
    25
100
AcDbLine
 10
1951.2772061072
 20
1458.0419879938
 30
0.0
 11
2005.2772261344
 21
1458.0419879938
 31
0.0
  0
LINE
  5
51D
330
1F
100
AcDbEntity
  8
0
  6
Continuous
 62
     7
370
    25
100
AcDbLine
 10
1951.2772061072
 20
1460.041992047
 30
0.0
 11
1951.2772061072
 21
1458.0419879938
 31
0.0
  0
LINE
  5
51E
330
1F
100
AcDbEntity
  8
0
  6
Continuous
 62
     7
370
    25
100
AcDbLine
 10
1951.2772061072
 20
1460.041992047
 30
0.0
 11
2005.2772261344
 21
1460.041992047
 31
0.0
  0
LINE
  5
51F
330
1F
100
AcDbEntity
  8
0
  6
Continuous
 62
     7
370
    25
100
AcDbLine
 10
2007.2772599898
 20
1446.0419860269
 30
0.0
 11
2009.2772342406
 21
1446.0419860269
 31
0.0
  0
LINE
  5
520
330
1F
100
AcDbEntity
  8
0
  6
Continuous
 62
     7
370
    25
100
AcDbLine
 10
2009.2772342406
 20
1456.0419913913
 30
0.0
 11
2007.2772599898
 21
1456.0419913913
 31
0.0
  0
LINE
  5
521
330
1F
100
AcDbEntity
  8
0
  6
Continuous
 62
     7
370
    25
100
AcDbLine
 10
2009.2772342406
 20
1456.0419913913
 30
0.0
 11
2009.2772342406
 21
1446.0419860269
 31
0.0
  0
LINE
  5
522
330
1F
100
AcDbEntity
  8
0
  6
Continuous
 62
     7
370
    25
100
AcDbLine
 10
2007.2772599898
 20
1456.0419913913
 30
0.0
 11
2007.2772599898
 21
1446.0419860269
 31
0.0
  0
ARC
  5
523
330
1F
100
AcDbEntity
  8
0
  6
Continuous
 62
     7
370
    25
100
AcDbCircle
 10
2005.2772304259
 20
1456.0419884707
 30
0.0
 40
1.999999999999773
100
AcDbArc
 50
0.0
 51
90.0
  0
ARC
  5
524
330
1F
100
AcDbEntity
  8
0
  6
Continuous
 62
     7
370
    25
100
AcDbCircle
 10
2005.2772304259
 20
1456.0419884707
 30
0.0
 40
3.999999999999773
100
AcDbArc
 50
0.0
 51
90.0
  0
ARC
  5
525
330
1F
100
AcDbEntity
  8
0
  6
Continuous
 62
     7
370
    25
100
AcDbCircle
 10
1951.2772304259
 20
1456.0419884707
 30
0.0
 40
2.0
100
AcDbArc
 50
90.0
 51
180.0
  0
LINE
  5
526
330
1F
100
AcDbEntity
  8
0
  6
Continuous
 62
     7
370
    25
100
AcDbLine
 10
1949.2772318564
 20
1456.0419913913
 30
0.0
 11
1947.2772576056
 21
1456.0419913913
 31
0.0
  0
ARC
  5
527
330
1F
100
AcDbEntity
  8
0
  6
Continuous
 62
     7
370
    25
100
AcDbCircle
 10
1951.2772304259
 20
1456.0419884707
 30
0.0
 40
4.000000000000227
100
AcDbArc
 50
90.0
 51
180.0
  0
LINE
  5
528
330
1F
100
AcDbEntity
  8
0
  6
Continuous
 62
     7
370
    25
100
AcDbLine
 10
1947.2772576056
 20
1398.0419893349
 30
0.0
 11
1949.2772318564
 21
1398.0419893349
 31
0.0
  0
LINE
  5
529
330
1F
100
AcDbEntity
  8
0
  6
Continuous
 62
     7
370
    25
100
AcDbLine
 10
1947.2772576056
 20
1398.0419893349
 30
0.0
 11
1947.2772576056
 21
1456.0419913913
 31
0.0
  0
LINE
  5
52A
330
1F
100
AcDbEntity
  8
0
  6
Continuous
 62
     7
370
    25
100
AcDbLine
 10
1949.2772318564
 20
1398.0419893349
 30
0.0
 11
1949.2772318564
 21
1456.0419913913
 31
0.0
  0
LINE
  5
52B
330
1F
100
AcDbEntity
  8
0
  6
Continuous
 62
     7
370
    25
100
AcDbLine
 10
1951.2772061072
 20
1396.0419890071
 30
0.0
 11
1951.2772061072
 21
1394.0419886793
 31
0.0
  0
ARC
  5
52C
330
1F
100
AcDbEntity
  8
0
  6
Continuous
 62
     7
370
    25
100
AcDbCircle
 10
1951.2772304259
 20
1398.0419884707
 30
0.0
 40
2.000000000000227
100
AcDbArc
 50
180.0
 51
270.0
  0
ARC
  5
52D
330
1F
100
AcDbEntity
  8
0
  6
Continuous
 62
     7
370
    25
100
AcDbCircle
 10
1951.2772304259
 20
1398.0419884707
 30
0.0
 40
4.000000000000227
100
AcDbArc
 50
180.0
 51
270.0
  0
LINE
  5
52E
330
1F
100
AcDbEntity
  8
0
  6
Continuous
 62
     7
370
    25
100
AcDbLine
 10
1977.2772289954
 20
1398.0419893349
 30
0.0
 11
1979.2772032462
 21
1398.0419893349
 31
0.0
  0
ARC
  5
52F
330
1F
100
AcDbEntity
  8
0
  6
Continuous
 62
     7
370
    25
100
AcDbCircle
 10
1975.2772304259
 20
1398.0419884707
 30
0.0
 40
4.000000000000682
100
AcDbArc
 50
270.0
 51
0.0
  0
LINE
  5
530
330
1F
100
AcDbEntity
  8
0
  6
Continuous
 62
     7
370
    25
100
AcDbLine
 10
1975.2772547446
 20
1394.0419886793
 30
0.0
 11
1975.2772547446
 21
1396.0419890071
 31
0.0
  0
ARC
  5
531
330
1F
100
AcDbEntity
  8
0
  6
Continuous
 62
     7
370
    25
100
AcDbCircle
 10
1975.2772304259
 20
1398.0419884707
 30
0.0
 40
2.000000000000909
100
AcDbArc
 50
270.0
 51
0.0
  0
LINE
  5
532
330
1F
100
AcDbEntity
  8
0
  6
Continuous
 62
     7
370
    25
100
AcDbLine
 10
1979.2772032462
 20
1408.0419872488
 30
0.0
 11
1977.2772289954
 21
1408.0419872488
 31
0.0
  0
LINE
  5
533
330
1F
100
AcDbEntity
  8
0
  6
Continuous
 62
     7
370
    25
100
AcDbLine
 10
1977.2772289954
 20
1408.0419872488
 30
0.0
 11
1977.2772289954
 21
1398.0419893349
 31
0.0
  0
LINE
  5
534
330
1F
100
AcDbEntity
  8
0
  6
Continuous
 62
     7
370
    25
100
AcDbLine
 10
1979.2772032462
 20
1408.0419872488
 30
0.0
 11
1979.2772032462
 21
1398.0419893349
 31
0.0
  0
LINE
  5
535
330
1F
100
AcDbEntity
  8
0
  6
Continuous
 62
     7
370
    25
100
AcDbLine
 10
1975.2772547446
 20
1394.0419886793
 30
0.0
 11
1951.2772061072
 21
1394.0419886793
 31
0.0
  0
LINE
  5
536
330
1F
100
AcDbEntity
  8
0
  6
Continuous
 62
     7
370
    25
100
AcDbLine
 10
1975.2772547446
 20
1396.0419890071
 30
0.0
 11
1951.2772061072
 21
1396.0419890071
 31
0.0
  0
LINE
  5
537
330
1F
100
AcDbEntity
  8
0
  6
Continuous
 62
     7
370
    25
100
AcDbLine
 10
2461.2772263728
 20
1364.6419883306
 30
0.0
 11
2453.2772399626
 21
1364.6419883306
 31
0.0
  0
ARC
  5
538
330
1F
100
AcDbEntity
  8
0
  6
Continuous
 62
     7
370
    25
100
AcDbCircle
 10
2453.2772304259
 20
1358.6419884707
 30
0.0
 40
6.0
100
AcDbArc
 50
90.0
 51
270.0
  0
LINE
  5
539
330
1F
100
AcDbEntity
  8
0
  6
Continuous
 62
     7
370
    25
100
AcDbLine
 10
2461.2772263728
 20
1352.6419882263
 30
0.0
 11
2453.2772399626
 21
1352.6419882263
 31
0.0
  0
ARC
  5
53A
330
1F
100
AcDbEntity
  8
0
  6
Continuous
 62
     7
370
    25
100
AcDbCircle
 10
2461.2772304259
 20
1358.6419884707
 30
0.0
 40
6.0
100
AcDbArc
 50
270.0
 51
90.0
  0
ARC
  5
53B
330
1F
100
AcDbEntity
  8
0
  6
Continuous
 62
     7
370
    25
100
AcDbCircle
 10
1911.2772304259
 20
1358.6419884707
 30
0.0
 40
6.0
100
AcDbArc
 50
270.0
 51
90.0
  0
LINE
  5
53C
330
1F
100
AcDbEntity
  8
0
  6
Continuous
 62
     7
370
    25
100
AcDbLine
 10
1903.2772280417
 20
1364.6419883306
 30
0.0
 11
1911.2772442542
 21
1364.6419883306
 31
0.0
  0
ARC
  5
53D
330
1F
100
AcDbEntity
  8
0
  6
Continuous
 62
     7
370
    25
100
AcDbCircle
 10
1903.2772304259
 20
1358.6419884707
 30
0.0
 40
6.0
100
AcDbArc
 50
90.0
 51
270.0
  0
LINE
  5
53E
330
1F
100
AcDbEntity
  8
0
  6
Continuous
 62
     7
370
    25
100
AcDbLine
 10
1903.2772280417
 20
1352.6419882263
 30
0.0
 11
1911.2772442542
 21
1352.6419882263
 31
0.0
  0
ARC
  5
53F
330
1F
100
AcDbEntity
  8
0
  6
Continuous
 62
     7
370
    25
100
AcDbCircle
 10
1951.2772304259
 20
1358.6419884707
 30
0.0
 40
6.0
100
AcDbArc
 50
270.0
 51
90.0
  0
LINE
  5
540
330
1F
100
AcDbEntity
  8
0
  6
Continuous
 62
     7
370
    25
100
AcDbLine
 10
1943.2772494994
 20
1352.6419882263
 30
0.0
 11
1951.2772061072
 21
1352.6419882263
 31
0.0
  0
LINE
  5
541
330
1F
100
AcDbEntity
  8
0
  6
Continuous
 62
     7
370
    25
100
AcDbLine
 10
2501.2772329293
 20
1364.6419883306
 30
0.0
 11
2493.277231618
 21
1364.6419883306
 31
0.0
  0
ARC
  5
542
330
1F
100
AcDbEntity
  8
0
  6
Continuous
 62
     7
370
    25
100
AcDbCircle
 10
2493.2772304259
 20
1358.6419884707
 30
0.0
 40
6.0
100
AcDbArc
 50
90.0
 51
270.0
  0
LINE
  5
543
330
1F
100
AcDbEntity
  8
0
  6
Continuous
 62
     7
370
    25
100
AcDbLine
 10
2501.2772329293
 20
1352.6419882263
 30
0.0
 11
2493.277231618
 21
1352.6419882263
 31
0.0
  0
ARC
  5
544
330
1F
100
AcDbEntity
  8
0
  6
Continuous
 62
     7
370
    25
100
AcDbCircle
 10
2501.2772304259
 20
1358.6419884707
 30
0.0
 40
6.0
100
AcDbArc
 50
270.0
 51
90.0
  0
ARC
  5
545
330
1F
100
AcDbEntity
  8
0
  6
Continuous
 62
     7
370
    25
100
AcDbCircle
 10
2933.2772304259
 20
1358.6419884707
 30
0.0
 40
6.0
100
AcDbArc
 50
270.0
 51
90.0
  0
LINE
  5
546
330
1F
100
AcDbEntity
  8
0
  6
Continuous
 62
     7
370
    25
100
AcDbLine
 10
2925.2772279225
 20
1364.6419883306
 30
0.0
 11
2933.2772292338
 21
1364.6419883306
 31
0.0
  0
ARC
  5
547
330
1F
100
AcDbEntity
  8
0
  6
Continuous
 62
     7
370
    25
100
AcDbCircle
 10
2925.2772304259
 20
1358.6419884707
 30
0.0
 40
6.0
100
AcDbArc
 50
90.0
 51
270.0
  0
LINE
  5
548
330
1F
100
AcDbEntity
  8
0
  6
Continuous
 62
     7
370
    25
100
AcDbLine
 10
2925.2772279225
 20
1352.6419882263
 30
0.0
 11
2933.2772292338
 21
1352.6419882263
 31
0.0
  0
ARC
  5
549
330
1F
100
AcDbEntity
  8
0
  6
Continuous
 62
     7
370
    25
100
AcDbCircle
 10
2973.2772304259
 20
1358.6419884707
 30
0.0
 40
6.0
100
AcDbArc
 50
270.0
 51
90.0
  0
LINE
  5
54A
330
1F
100
AcDbEntity
  8
0
  6
Continuous
 62
     7
370
    25
100
AcDbLine
 10
2965.277234479
 20
1364.6419883306
 30
0.0
 11
2973.2772208892
 21
1364.6419883306
 31
0.0
  0
ARC
  5
54B
330
1F
100
AcDbEntity
  8
0
  6
Continuous
 62
     7
370
    25
100
AcDbCircle
 10
2965.2772304259
 20
1358.6419884707
 30
0.0
 40
6.0
100
AcDbArc
 50
90.0
 51
270.0
  0
LINE
  5
54C
330
1F
100
AcDbEntity
  8
0
  6
Continuous
 62
     7
370
    25
100
AcDbLine
 10
2965.277234479
 20
1352.6419882263
 30
0.0
 11
2973.2772208892
 21
1352.6419882263
 31
0.0
  0
LINE
  5
54D
330
1F
100
AcDbEntity
  8
0
  6
Continuous
 62
     7
370
    25
100
AcDbLine
 10
3013.2772423468
 20
1364.6419883306
 30
0.0
 11
3005.2772261344
 21
1364.6419883306
 31
0.0
  0
ARC
  5
54E
330
1F
100
AcDbEntity
  8
0
  6
Continuous
 62
     7
370
    25
100
AcDbCircle
 10
3005.2772304259
 20
1358.6419884707
 30
0.0
 40
6.0
100
AcDbArc
 50
90.0
 51
270.0
  0
LINE
  5
54F
330
1F
100
AcDbEntity
  8
0
  6
Continuous
 62
     7
370
    25
100
AcDbLine
 10
3013.2772423468
 20
1352.6419882263
 30
0.0
 11
3005.2772261344
 21
1352.6419882263
 31
0.0
  0
ARC
  5
550
330
1F
100
AcDbEntity
  8
0
  6
Continuous
 62
     7
370
    25
100
AcDbCircle
 10
3013.2772304259
 20
1358.6419884707
 30
0.0
 40
6.0
100
AcDbArc
 50
270.0
 51
90.0
  0
ARC
  5
551
330
1F
100
AcDbEntity
  8
0
  6
Continuous
 62
     7
370
    25
100
AcDbCircle
 10
2421.2772304259
 20
1358.6419884707
 30
0.0
 40
6.0
100
AcDbArc
 50
270.0
 51
90.0
  0
LINE
  5
552
330
1F
100
AcDbEntity
  8
0
  6
Continuous
 62
     7
370
    25
100
AcDbLine
 10
2413.277218505
 20
1364.6419883306
 30
0.0
 11
2421.2772347174
 21
1364.6419883306
 31
0.0
  0
ARC
  5
553
330
1F
100
AcDbEntity
  8
0
  6
Continuous
 62
     7
370
    25
100
AcDbCircle
 10
2413.2772304259
 20
1358.6419884707
 30
0.0
 40
6.0
100
AcDbArc
 50
90.0
 51
270.0
  0
LINE
  5
554
330
1F
100
AcDbEntity
  8
0
  6
Continuous
 62
     7
370
    25
100
AcDbLine
 10
2413.277218505
 20
1352.6419882263
 30
0.0
 11
2421.2772347174
 21
1352.6419882263
 31
0.0
  0
ARC
  5
555
330
1F
100
AcDbEntity
  8
0
  6
Continuous
 62
     7
370
    25
100
AcDbCircle
 10
1871.2772304259
 20
1358.6419884707
 30
0.0
 40
6.0
100
AcDbArc
 50
270.0
 51
90.0
  0
LINE
  5
556
330
1F
100
AcDbEntity
  8
0
  6
Continuous
 62
     7
370
    25
100
AcDbLine
 10
1863.277206584
 20
1364.6419883306
 30
0.0
 11
1871.2772227965
 21
1364.6419883306
 31
0.0
  0
ARC
  5
557
330
1F
100
AcDbEntity
  8
0
  6
Continuous
 62
     7
370
    25
100
AcDbCircle
 10
1863.2772304259
 20
1358.6419884707
 30
0.0
 40
6.0
100
AcDbArc
 50
90.0
 51
270.0
  0
LINE
  5
558
330
1F
100
AcDbEntity
  8
0
  6
Continuous
 62
     7
370
    25
100
AcDbLine
 10
1863.277206584
 20
1352.6419882263
 30
0.0
 11
1871.2772227965
 21
1352.6419882263
 31
0.0
  0
LINE
  5
559
330
1F
100
AcDbEntity
  8
0
  6
Continuous
 62
     7
370
    25
100
AcDbLine
 10
3716.2772514067
 20
1339.0419889773
 30
0.0
 11
3716.2772514067
 21
1390.0419880236
 31
0.0
  0
LINE
  5
55A
330
1F
100
AcDbEntity
  8
0
  6
Continuous
 62
     7
370
    25
100
AcDbLine
 10
1710.2772094451
 20
1339.0419889773
 30
0.0
 11
3716.2772514067
 21
1339.0419889773
 31
0.0
  0
LINE
  5
55B
330
1F
100
AcDbEntity
  8
0
  6
Continuous
 62
     7
370
    25
100
AcDbLine
 10
1710.2772094451
 20
1390.0419880236
 30
0.0
 11
1710.2772094451
 21
1339.0419889773
 31
0.0
  0
LINE
  5
55C
330
1F
100
AcDbEntity
  8
0
  6
Continuous
 62
     7
370
    25
100
AcDbLine
 10
1710.2772094451
 20
1390.0419880236
 30
0.0
 11
3716.2772514067
 21
1390.0419880236
 31
0.0
  0
LINE
  5
55D
330
1F
100
AcDbEntity
  8
0
  6
Continuous
 62
     7
370
    25
100
AcDbLine
 10
3483.2772113524
 20
1364.6419883306
 30
0.0
 11
3475.2772547446
 21
1364.6419883306
 31
0.0
  0
ARC
  5
55E
330
1F
100
AcDbEntity
  8
0
  6
Continuous
 62
     7
370
    25
100
AcDbCircle
 10
3475.2772304259
 20
1358.6419884707
 30
0.0
 40
6.0
100
AcDbArc
 50
90.0
 51
270.0
  0
LINE
  5
55F
330
1F
100
AcDbEntity
  8
0
  6
Continuous
 62
     7
370
    25
100
AcDbLine
 10
3483.2772113524
 20
1352.6419882263
 30
0.0
 11
3475.2772547446
 21
1352.6419882263
 31
0.0
  0
ARC
  5
560
330
1F
100
AcDbEntity
  8
0
  6
Continuous
 62
     7
370
    25
100
AcDbCircle
 10
3483.2772304259
 20
1358.6419884707
 30
0.0
 40
6.0
100
AcDbArc
 50
270.0
 51
90.0
  0
LINE
  5
561
330
1F
100
AcDbEntity
  8
0
  6
Continuous
 62
     7
370
    25
100
AcDbLine
 10
3523.2772328101
 20
1364.6419883306
 30
0.0
 11
3515.2772165976
 21
1364.6419883306
 31
0.0
  0
ARC
  5
562
330
1F
100
AcDbEntity
  8
0
  6
Continuous
 62
     7
370
    25
100
AcDbCircle
 10
3515.2772304259
 20
1358.6419884707
 30
0.0
 40
6.0
100
AcDbArc
 50
90.0
 51
270.0
  0
LINE
  5
563
330
1F
100
AcDbEntity
  8
0
  6
Continuous
 62
     7
370
    25
100
AcDbLine
 10
3523.2772328101
 20
1352.6419882263
 30
0.0
 11
3515.2772165976
 21
1352.6419882263
 31
0.0
  0
ARC
  5
564
330
1F
100
AcDbEntity
  8
0
  6
Continuous
 62
     7
370
    25
100
AcDbCircle
 10
3523.2772304259
 20
1358.6419884707
 30
0.0
 40
6.0
100
AcDbArc
 50
270.0
 51
90.0
  0
LINE
  5
565
330
1F
100
AcDbEntity
  8
0
  6
Continuous
 62
     7
370
    25
100
AcDbLine
 10
3563.2772542678
 20
1364.6419883306
 30
0.0
 11
3555.2772380553
 21
1364.6419883306
 31
0.0
  0
ARC
  5
566
330
1F
100
AcDbEntity
  8
0
  6
Continuous
 62
     7
370
    25
100
AcDbCircle
 10
3555.2772304259
 20
1358.6419884707
 30
0.0
 40
6.0
100
AcDbArc
 50
90.0
 51
270.0
  0
LINE
  5
567
330
1F
100
AcDbEntity
  8
0
  6
Continuous
 62
     7
370
    25
100
AcDbLine
 10
3563.2772542678
 20
1352.6419882263
 30
0.0
 11
3555.2772380553
 21
1352.6419882263
 31
0.0
  0
ARC
  5
568
330
1F
100
AcDbEntity
  8
0
  6
Continuous
 62
     7
370
    25
100
AcDbCircle
 10
3563.2772304259
 20
1358.6419884707
 30
0.0
 40
6.0
100
AcDbArc
 50
270.0
 51
90.0
  0
LINE
  5
569
330
1F
100
AcDbEntity
  8
0
  6
Continuous
 62
     7
370
    25
100
AcDbLine
 10
1943.2772494994
 20
1364.6419883306
 30
0.0
 11
1951.2772061072
 21
1364.6419883306
 31
0.0
  0
ARC
  5
56A
330
1F
100
AcDbEntity
  8
0
  6
Continuous
 62
     7
370
    25
100
AcDbCircle
 10
1943.2772304259
 20
1358.6419884707
 30
0.0
 40
6.0
100
AcDbArc
 50
90.0
 51
270.0
  0
LINE
  5
56B
330
1F
100
AcDbEntity
  8
0
  6
Continuous
 62
     7
370
    25
100
AcDbLine
 10
3716.2772514067
 20
1394.0419886793
 30
0.0
 11
3716.2772514067
 21
1390.0419880236
 31
0.0
  0
LINE
  5
56C
330
1F
100
AcDbEntity
  8
0
  6
Continuous
 62
     7
370
    25
100
AcDbLine
 10
1710.2772094451
 20
1390.0419880236
 30
0.0
 11
1710.2772094451
 21
1394.0419886793
 31
0.0
  0
LINE
  5
56D
330
1F
100
AcDbEntity
  8
0
  6
Continuous
 62
     7
370
    25
100
AcDbLine
 10
1710.2772094451
 20
1394.0419886793
 30
0.0
 11
1951.2772061072
 21
1394.0419886793
 31
0.0
  0
LINE
  5
56E
330
1F
100
AcDbEntity
  8
0
  6
Continuous
 62
     7
370
    25
100
AcDbLine
 10
1975.2772547446
 20
1394.0419886793
 30
0.0
 11
3451.2772061072
 21
1394.0419886793
 31
0.0
  0
LINE
  5
56F
330
1F
100
AcDbEntity
  8
0
  6
Continuous
 62
     7
370
    25
100
AcDbLine
 10
3475.2772547446
 20
1394.0419886793
 30
0.0
 11
3716.2772514067
 21
1394.0419886793
 31
0.0
  0
ARC
  5
570
330
1F
100
AcDbEntity
  8
0
  6
Continuous
 62
     7
370
    25
100
AcDbCircle
 10
6464.3919390769
 20
2515.0629354326
 30
0.0
 40
6.0
100
AcDbArc
 50
0.0
 51
179.9999999999
  0
LINE
  5
571
330
1F
100
AcDbEntity
  8
0
  6
Continuous
 62
     7
370
    25
100
AcDbLine
 10
6458.391939971
 20
2515.0629444924
 30
0.0
 11
6458.391939971
 21
2477.0629568902
 31
0.0
  0
ARC
  5
572
330
1F
100
AcDbEntity
  8
0
  6
Continuous
 62
     7
370
    25
100
AcDbCircle
 10
6464.3919390769
 20
2477.0629354326
 30
0.0
 40
6.0
100
AcDbArc
 50
179.9999999999
 51
0.0
  0
LINE
  5
573
330
1F
100
AcDbEntity
  8
0
  6
Continuous
 62
     7
370
    25
100
AcDbLine
 10
6470.3919382127
 20
2396.0629268495
 30
0.0
 11
6470.3919382127
 21
2477.0629568902
 31
0.0
  0
ARC
  5
574
330
1F
100
AcDbEntity
  8
0
  6
Continuous
 62
     7
370
    25
100
AcDbCircle
 10
6464.3919390769
 20
2396.0629354326
 30
0.0
 40
6.0
100
AcDbArc
 50
0.0
 51
179.9999999996
  0
LINE
  5
575
330
1F
100
AcDbEntity
  8
0
  6
Continuous
 62
     7
370
    25
100
AcDbLine
 10
6458.391939971
 20
2396.0629268495
 30
0.0
 11
6458.391939971
 21
2358.0629392472
 31
0.0
  0
ARC
  5
576
330
1F
100
AcDbEntity
  8
0
  6
Continuous
 62
     7
370
    25
100
AcDbCircle
 10
6464.3919390769
 20
2358.0629354326
 30
0.0
 40
6.0
100
AcDbArc
 50
179.9999999999
 51
0.0
  0
LINE
  5
577
330
1F
100
AcDbEntity
  8
0
  6
Continuous
 62
     7
370
    25
100
AcDbLine
 10
6470.3919382127
 20
2322.0629258958
 30
0.0
 11
6470.3919382127
 21
2358.0629392472
 31
0.0
  0
ARC
  5
578
330
1F
100
AcDbEntity
  8
0
  6
Continuous
 62
     7
370
    25
100
AcDbCircle
 10
6464.3919390769
 20
2322.0629354326
 30
0.0
 40
6.0
100
AcDbArc
 50
0.0
 51
179.9999999999
  0
LINE
  5
579
330
1F
100
AcDbEntity
  8
0
  6
Continuous
 62
     7
370
    25
100
AcDbLine
 10
6458.391939971
 20
2322.0629258958
 30
0.0
 11
6458.391939971
 21
2284.0629382935
 31
0.0
  0
ARC
  5
57A
330
1F
100
AcDbEntity
  8
0
  6
Continuous
 62
     7
370
    25
100
AcDbCircle
 10
6464.3919390769
 20
2284.0629354326
 30
0.0
 40
6.0
100
AcDbArc
 50
179.9999999999
 51
0.0
  0
LINE
  5
57B
330
1F
100
AcDbEntity
  8
0
  6
Continuous
 62
     7
370
    25
100
AcDbLine
 10
6470.3919382127
 20
2032.0629342404
 30
0.0
 11
6470.3919382127
 21
2284.0629382935
 31
0.0
  0
ARC
  5
57C
330
1F
100
AcDbEntity
  8
0
  6
Continuous
 62
     7
370
    25
100
AcDbCircle
 10
6464.3919390769
 20
2032.0629354326
 30
0.0
 40
6.000000000000909
100
AcDbArc
 50
0.0
 51
180.0
  0
LINE
  5
57D
330
1F
100
AcDbEntity
  8
0
  6
Continuous
 62
     7
370
    25
100
AcDbLine
 10
6458.391939971
 20
2032.0629342404
 30
0.0
 11
6458.391939971
 21
1994.062931737
 31
0.0
  0
ARC
  5
57E
330
1F
100
AcDbEntity
  8
0
  6
Continuous
 62
     7
370
    25
100
AcDbCircle
 10
6464.3919390769
 20
1994.0629354326
 30
0.0
 40
6.000000000000909
100
AcDbArc
 50
179.9999999996
 51
0.0
  0
LINE
  5
57F
330
1F
100
AcDbEntity
  8
0
  6
Continuous
 62
     7
370
    25
100
AcDbLine
 10
6470.3919382127
 20
1892.062935507
 30
0.0
 11
6470.3919382127
 21
1994.062931737
 31
0.0
  0
LINE
  5
580
330
1F
100
AcDbEntity
  8
0
  6
Continuous
 62
     7
370
    25
100
AcDbLine
 10
6470.3919382127
 20
1892.062935507
 30
0.0
 11
6412.3919361563
 21
1892.062935507
 31
0.0
  0
LINE
  5
581
330
1F
100
AcDbEntity
  8
0
  6
Continuous
 62
     7
370
    25
100
AcDbLine
 10
6412.3919361563
 20
1892.062935507
 30
0.0
 11
6412.3919361563
 21
3952.0630403367
 31
0.0
  0
LINE
  5
582
330
1F
100
AcDbEntity
  8
0
  6
Continuous
 62
     7
370
    25
100
AcDbLine
 10
6470.3919382127
 20
3952.0630403367
 30
0.0
 11
6412.3919361563
 21
3952.0630403367
 31
0.0
  0
LINE
  5
583
330
1F
100
AcDbEntity
  8
0
  6
Continuous
 62
     7
370
    25
100
AcDbLine
 10
6470.3919382127
 20
3850.0629230348
 30
0.0
 11
6470.3919382127
 21
3952.0630403367
 31
0.0
  0
ARC
  5
584
330
1F
100
AcDbEntity
  8
0
  6
Continuous
 62
     7
370
    25
100
AcDbCircle
 10
6464.3919390769
 20
3850.0629354325
 30
0.0
 40
6.0
100
AcDbArc
 50
0.0
 51
180.0
  0
LINE
  5
585
330
1F
100
AcDbEntity
  8
0
  6
Continuous
 62
     7
370
    25
100
AcDbLine
 10
6458.391939971
 20
3850.0629230348
 30
0.0
 11
6458.391939971
 21
3812.0629354325
 31
0.0
  0
ARC
  5
586
330
1F
100
AcDbEntity
  8
0
  6
Continuous
 62
     7
370
    25
100
AcDbCircle
 10
6464.3919390769
 20
3812.0629354325
 30
0.0
 40
6.0
100
AcDbArc
 50
180.0
 51
0.0
  0
LINE
  5
587
330
1F
100
AcDbEntity
  8
0
  6
Continuous
 62
     7
370
    25
100
AcDbLine
 10
6470.3919382127
 20
3560.0629611817
 30
0.0
 11
6470.3919382127
 21
3812.0629354325
 31
0.0
  0
ARC
  5
588
330
1F
100
AcDbEntity
  8
0
  6
Continuous
 62
     7
370
    25
100
AcDbCircle
 10
6464.3919390769
 20
3560.0629354325
 30
0.0
 40
6.0
100
AcDbArc
 50
0.0
 51
180.0
  0
LINE
  5
589
330
1F
100
AcDbEntity
  8
0
  6
Continuous
 62
     7
370
    25
100
AcDbLine
 10
6458.391939971
 20
3560.0629611817
 30
0.0
 11
6458.391939971
 21
3522.0629735795
 31
0.0
  0
ARC
  5
58A
330
1F
100
AcDbEntity
  8
0
  6
Continuous
 62
     7
370
    25
100
AcDbCircle
 10
6464.3919390769
 20
3522.0629354325
 30
0.0
 40
6.0
100
AcDbArc
 50
180.0
 51
0.0
  0
LINE
  5
58B
330
1F
100
AcDbEntity
  8
0
  6
Continuous
 62
     7
370
    25
100
AcDbLine
 10
6470.3919382127
 20
3486.0629602281
 30
0.0
 11
6470.3919382127
 21
3522.0629735795
 31
0.0
  0
ARC
  5
58C
330
1F
100
AcDbEntity
  8
0
  6
Continuous
 62
     7
370
    25
100
AcDbCircle
 10
6464.3919390769
 20
3486.0629354325
 30
0.0
 40
6.0
100
AcDbArc
 50
0.0
 51
180.0
  0
LINE
  5
58D
330
1F
100
AcDbEntity
  8
0
  6
Continuous
 62
     7
370
    25
100
AcDbLine
 10
6458.391939971
 20
3486.0629602281
 30
0.0
 11
6458.391939971
 21
3448.0629726258
 31
0.0
  0
ARC
  5
58E
330
1F
100
AcDbEntity
  8
0
  6
Continuous
 62
     7
370
    25
100
AcDbCircle
 10
6464.3919390769
 20
3448.0629354325
 30
0.0
 40
6.0
100
AcDbArc
 50
180.0
 51
360.0
  0
LINE
  5
58F
330
1F
100
AcDbEntity
  8
0
  6
Continuous
 62
     7
370
    25
100
AcDbLine
 10
6470.3919382127
 20
3367.0628829804
 30
0.0
 11
6470.3919382127
 21
3448.0629726258
 31
0.0
  0
ARC
  5
590
330
1F
100
AcDbEntity
  8
0
  6
Continuous
 62
     7
370
    25
100
AcDbCircle
 10
6464.3919390769
 20
3367.0629354325
 30
0.0
 40
6.0
100
AcDbArc
 50
0.0
 51
180.0
  0
LINE
  5
591
330
1F
100
AcDbEntity
  8
0
  6
Continuous
 62
     7
370
    25
100
AcDbLine
 10
6458.391939971
 20
3367.0628829804
 30
0.0
 11
6458.391939971
 21
3329.0628953782
 31
0.0
  0
ARC
  5
592
330
1F
100
AcDbEntity
  8
0
  6
Continuous
 62
     7
370
    25
100
AcDbCircle
 10
6464.3919390769
 20
3329.0629354325
 30
0.0
 40
6.0
100
AcDbArc
 50
180.0
 51
0.0
  0
LINE
  5
593
330
1F
100
AcDbEntity
  8
0
  6
Continuous
 62
     7
370
    25
100
AcDbLine
 10
6470.3919382127
 20
2515.0629444924
 30
0.0
 11
6470.3919382127
 21
3329.0628953782
 31
0.0
  0
LINE
  5
594
330
1F
100
AcDbEntity
  8
0
  6
Continuous
 62
     7
370
    25
100
AcDbLine
 10
6474.3919388683
 20
1892.062935507
 30
0.0
 11
6474.3919388683
 21
1907.8129355275
 31
0.0
  0
LINE
  5
595
330
1F
100
AcDbEntity
  8
0
  6
Continuous
 62
     7
370
    25
100
AcDbLine
 10
6474.3919388683
 20
1943.8129342106
 30
0.0
 11
6474.3919388683
 21
3873.812989792
 31
0.0
  0
LINE
  5
596
330
1F
100
AcDbEntity
  8
0
  6
Continuous
 62
     7
370
    25
100
AcDbLine
 10
6474.3919388683
 20
3909.8128839341
 30
0.0
 11
6474.3919388683
 21
3952.0630403367
 31
0.0
  0
LINE
  5
597
330
1F
100
AcDbEntity
  8
0
  6
Continuous
 62
     7
370
    25
100
AcDbLine
 10
6474.3919388683
 20
1892.062935507
 30
0.0
 11
6470.3919382127
 21
1892.062935507
 31
0.0
  0
LINE
  5
598
330
1F
100
AcDbEntity
  8
0
  6
Continuous
 62
     7
370
    25
100
AcDbLine
 10
6470.3919382127
 20
1994.062931737
 30
0.0
 11
6470.3919382127
 21
2032.0629342404
 31
0.0
  0
LINE
  5
599
330
1F
100
AcDbEntity
  8
0
  6
Continuous
 62
     7
370
    25
100
AcDbLine
 10
6470.3919382127
 20
2284.0629382935
 30
0.0
 11
6470.3919382127
 21
2322.0629258958
 31
0.0
  0
LINE
  5
59A
330
1F
100
AcDbEntity
  8
0
  6
Continuous
 62
     7
370
    25
100
AcDbLine
 10
6470.3919382127
 20
2358.0629392472
 30
0.0
 11
6470.3919382127
 21
2396.0629268495
 31
0.0
  0
LINE
  5
59B
330
1F
100
AcDbEntity
  8
0
  6
Continuous
 62
     7
370
    25
100
AcDbLine
 10
6470.3919382127
 20
2477.0629568902
 30
0.0
 11
6470.3919382127
 21
2515.0629444924
 31
0.0
  0
LINE
  5
59C
330
1F
100
AcDbEntity
  8
0
  6
Continuous
 62
     7
370
    25
100
AcDbLine
 10
6470.3919382127
 20
3329.0628953782
 30
0.0
 11
6470.3919382127
 21
3367.0628829804
 31
0.0
  0
LINE
  5
59D
330
1F
100
AcDbEntity
  8
0
  6
Continuous
 62
     7
370
    25
100
AcDbLine
 10
6470.3919382127
 20
3448.0629726258
 30
0.0
 11
6470.3919382127
 21
3486.0629602281
 31
0.0
  0
LINE
  5
59E
330
1F
100
AcDbEntity
  8
0
  6
Continuous
 62
     7
370
    25
100
AcDbLine
 10
6470.3919382127
 20
3522.0629735795
 30
0.0
 11
6470.3919382127
 21
3560.0629611817
 31
0.0
  0
LINE
  5
59F
330
1F
100
AcDbEntity
  8
0
  6
Continuous
 62
     7
370
    25
100
AcDbLine
 10
6470.3919382127
 20
3812.0629354325
 30
0.0
 11
6470.3919382127
 21
3850.0629230348
 31
0.0
  0
LINE
  5
5A0
330
1F
100
AcDbEntity
  8
0
  6
Continuous
 62
     7
370
    25
100
AcDbLine
 10
6470.3919382127
 20
3952.0630403367
 30
0.0
 11
6474.3919388683
 21
3952.0630403367
 31
0.0
  0
LINE
  5
5A1
330
1F
100
AcDbEntity
  8
0
  6
Continuous
 62
     7
370
    25
100
AcDbLine
 10
6412.3919361563
 20
1892.062935507
 30
0.0
 11
6408.3919355007
 21
1892.062935507
 31
0.0
  0
LINE
  5
5A2
330
1F
100
AcDbEntity
  8
0
  6
Continuous
 62
     7
370
    25
100
AcDbLine
 10
6408.3919355007
 20
1892.062935507
 30
0.0
 11
6408.3919355007
 21
3952.0630403367
 31
0.0
  0
LINE
  5
5A3
330
1F
100
AcDbEntity
  8
0
  6
Continuous
 62
     7
370
    25
100
AcDbLine
 10
6408.3919355007
 20
3952.0630403367
 30
0.0
 11
6412.3919361563
 21
3952.0630403367
 31
0.0
  0
LINE
  5
5A4
330
1F
100
AcDbEntity
  8
0
  6
Continuous
 62
     7
370
    25
100
AcDbLine
 10
6460.3919402988
 20
1989.5908026901
 30
0.0
 11
6460.3919402988
 21
2036.5350707379
 31
0.0
  0
LINE
  5
5A5
330
1F
100
AcDbEntity
  8
0
  6
Continuous
 62
     7
370
    25
100
AcDbLine
 10
6460.3919402988
 20
2279.590801796
 30
0.0
 11
6460.3919402988
 21
2326.5350623933
 31
0.0
  0
LINE
  5
5A6
330
1F
100
AcDbEntity
  8
0
  6
Continuous
 62
     7
370
    25
100
AcDbLine
 10
6460.3919402988
 20
2353.5908027497
 30
0.0
 11
6460.3919402988
 21
2400.535063347
 31
0.0
  0
LINE
  5
5A7
330
1F
100
AcDbEntity
  8
0
  6
Continuous
 62
     7
370
    25
100
AcDbLine
 10
6460.3919402988
 20
2472.5908203927
 30
0.0
 11
6460.3919402988
 21
2519.5350809899
 31
0.0
  0
LINE
  5
5A8
330
1F
100
AcDbEntity
  8
0
  6
Continuous
 62
     7
370
    25
100
AcDbLine
 10
6460.3919402988
 20
3324.5907588807
 30
0.0
 11
6460.3919402988
 21
3371.5350194779
 31
0.0
  0
LINE
  5
5A9
330
1F
100
AcDbEntity
  8
0
  6
Continuous
 62
     7
370
    25
100
AcDbLine
 10
6460.3919402988
 20
3443.5908361283
 30
0.0
 11
6460.3919402988
 21
3490.5350967256
 31
0.0
  0
LINE
  5
5AA
330
1F
100
AcDbEntity
  8
0
  6
Continuous
 62
     7
370
    25
100
AcDbLine
 10
6460.3919402988
 20
3517.590837082
 30
0.0
 11
6460.3919402988
 21
3564.5350976792
 31
0.0
  0
LINE
  5
5AB
330
1F
100
AcDbEntity
  8
0
  6
Continuous
 62
     7
370
    25
100
AcDbLine
 10
6460.3919402988
 20
3807.590798935
 30
0.0
 11
6460.3919402988
 21
3854.5350595323
 31
0.0
  0
LINE
  5
5AC
330
1F
100
AcDbEntity
  8
0
  6
Continuous
 62
     7
370
    25
100
AcDbLine
 10
6476.3919391961
 20
1943.8129342106
 30
0.0
 11
6474.3919388683
 21
1943.8129342106
 31
0.0
  0
LINE
  5
5AD
330
1F
100
AcDbEntity
  8
0
  6
Continuous
 62
     7
370
    25
100
AcDbLine
 10
6478.391939524
 20
1945.8129345385
 30
0.0
 11
6478.391939524
 21
1947.8129348663
 31
0.0
  0
ARC
  5
5AE
330
1F
100
AcDbEntity
  8
0
  6
Continuous
 62
     7
370
    25
100
AcDbCircle
 10
6478.3919390769
 20
1943.8129354325
 30
0.0
 40
2.000000000000455
100
AcDbArc
 50
90.0
 51
179.9999999999
  0
ARC
  5
5AF
330
1F
100
AcDbEntity
  8
0
  6
Continuous
 62
     7
370
    25
100
AcDbCircle
 10
6478.3919390769
 20
1943.8129354325
 30
0.0
 40
4.000000000000227
100
AcDbArc
 50
90.0
 51
180.0
  0
LINE
  5
5B0
330
1F
100
AcDbEntity
  8
0
  6
Continuous
 62
     7
370
    25
100
AcDbLine
 10
6498.3919390769
 20
1943.8129342106
 30
0.0
 11
6498.3919390769
 21
1933.8129362968
 31
0.0
  0
LINE
  5
5B1
330
1F
100
AcDbEntity
  8
0
  6
Continuous
 62
     7
370
    25
100
AcDbLine
 10
6496.3919389819
 20
1943.8129342106
 30
0.0
 11
6498.3919390769
 21
1943.8129342106
 31
0.0
  0
LINE
  5
5B2
330
1F
100
AcDbEntity
  8
0
  6
Continuous
 62
     7
370
    25
100
AcDbLine
 10
6498.3919390769
 20
1933.8129362968
 30
0.0
 11
6496.3919389819
 21
1933.8129362968
 31
0.0
  0
LINE
  5
5B3
330
1F
100
AcDbEntity
  8
0
  6
Continuous
 62
     7
370
    25
100
AcDbLine
 10
6496.3919389819
 20
1943.8129342106
 30
0.0
 11
6496.3919389819
 21
1933.8129362968
 31
0.0
  0
LINE
  5
5B4
330
1F
100
AcDbEntity
  8
0
  6
Continuous
 62
     7
370
    25
100
AcDbLine
 10
6476.3919391961
 20
1907.8129355275
 30
0.0
 11
6474.3919388683
 21
1907.8129355275
 31
0.0
  0
LINE
  5
5B5
330
1F
100
AcDbEntity
  8
0
  6
Continuous
 62
     7
370
    25
100
AcDbLine
 10
6474.3919388683
 20
1943.8129342106
 30
0.0
 11
6474.3919388683
 21
1907.8129355275
 31
0.0
  0
LINE
  5
5B6
330
1F
100
AcDbEntity
  8
0
  6
Continuous
 62
     7
370
    25
100
AcDbLine
 10
6476.3919391961
 20
1943.8129342106
 30
0.0
 11
6476.3919391961
 21
1907.8129355275
 31
0.0
  0
LINE
  5
5B7
330
1F
100
AcDbEntity
  8
0
  6
Continuous
 62
     7
370
    25
100
AcDbLine
 10
6478.391939524
 20
1905.8129354325
 30
0.0
 11
6478.391939524
 21
1903.8129353375
 31
0.0
  0
LINE
  5
5B8
330
1F
100
AcDbEntity
  8
0
  6
Continuous
 62
     7
370
    25
100
AcDbLine
 10
6529.3919385703
 20
1905.8129354325
 30
0.0
 11
6478.391939524
 21
1905.8129354325
 31
0.0
  0
LINE
  5
5B9
330
1F
100
AcDbEntity
  8
0
  6
Continuous
 62
     7
370
    25
100
AcDbLine
 10
6529.3919385703
 20
1903.8129353375
 30
0.0
 11
6529.3919385703
 21
1905.8129354325
 31
0.0
  0
LINE
  5
5BA
330
1F
100
AcDbEntity
  8
0
  6
Continuous
 62
     7
370
    25
100
AcDbLine
 10
6529.3919385703
 20
1903.8129353375
 30
0.0
 11
6478.391939524
 21
1903.8129353375
 31
0.0
  0
ARC
  5
5BB
330
1F
100
AcDbEntity
  8
0
  6
Continuous
 62
     7
370
    25
100
AcDbCircle
 10
6478.3919390769
 20
1907.8129354325
 30
0.0
 40
2.000000000000455
100
AcDbArc
 50
179.9999999999
 51
270.0
  0
ARC
  5
5BC
330
1F
100
AcDbEntity
  8
0
  6
Continuous
 62
     7
370
    25
100
AcDbCircle
 10
6478.3919390769
 20
1907.8129354325
 30
0.0
 40
4.000000000000227
100
AcDbArc
 50
180.0
 51
270.0
  0
LINE
  5
5BD
330
1F
100
AcDbEntity
  8
0
  6
Continuous
 62
     7
370
    25
100
AcDbLine
 10
6494.3919388869
 20
1945.8129345385
 30
0.0
 11
6494.3919388869
 21
1947.8129348663
 31
0.0
  0
LINE
  5
5BE
330
1F
100
AcDbEntity
  8
0
  6
Continuous
 62
     7
370
    25
100
AcDbLine
 10
6494.3919388869
 20
1945.8129345385
 30
0.0
 11
6478.391939524
 21
1945.8129345385
 31
0.0
  0
LINE
  5
5BF
330
1F
100
AcDbEntity
  8
0
  6
Continuous
 62
     7
370
    25
100
AcDbLine
 10
6494.3919388869
 20
1947.8129348663
 30
0.0
 11
6478.391939524
 21
1947.8129348663
 31
0.0
  0
ARC
  5
5C0
330
1F
100
AcDbEntity
  8
0
  6
Continuous
 62
     7
370
    25
100
AcDbCircle
 10
6494.3919390769
 20
1943.8129354325
 30
0.0
 40
2.000000000000455
100
AcDbArc
 50
0.0
 51
90.0
  0
ARC
  5
5C1
330
1F
100
AcDbEntity
  8
0
  6
Continuous
 62
     7
370
    25
100
AcDbCircle
 10
6494.3919390769
 20
1943.8129354325
 30
0.0
 40
4.000000000000227
100
AcDbArc
 50
0.0
 51
90.0
  0
LINE
  5
5C2
330
1F
100
AcDbEntity
  8
0
  6
Continuous
 62
     7
370
    25
100
AcDbLine
 10
6476.3919391961
 20
3909.8128839341
 30
0.0
 11
6474.3919388683
 21
3909.8128839341
 31
0.0
  0
LINE
  5
5C3
330
1F
100
AcDbEntity
  8
0
  6
Continuous
 62
     7
370
    25
100
AcDbLine
 10
6476.3919391961
 20
3909.8128839341
 30
0.0
 11
6476.3919391961
 21
3873.812989792
 31
0.0
  0
LINE
  5
5C4
330
1F
100
AcDbEntity
  8
0
  6
Continuous
 62
     7
370
    25
100
AcDbLine
 10
6476.3919391961
 20
3873.812989792
 30
0.0
 11
6474.3919388683
 21
3873.812989792
 31
0.0
  0
LINE
  5
5C5
330
1F
100
AcDbEntity
  8
0
  6
Continuous
 62
     7
370
    25
100
AcDbLine
 10
6474.3919388683
 20
3909.8128839341
 30
0.0
 11
6474.3919388683
 21
3873.812989792
 31
0.0
  0
ARC
  5
5C6
330
1F
100
AcDbEntity
  8
0
  6
Continuous
 62
     7
370
    25
100
AcDbCircle
 10
6478.3919390769
 20
3909.8129354325
 30
0.0
 40
3.999999999999545
100
AcDbArc
 50
90.0
 51
180.0
  0
LINE
  5
5C7
330
1F
100
AcDbEntity
  8
0
  6
Continuous
 62
     7
370
    25
100
AcDbLine
 10
6478.391939524
 20
3911.8129773942
 30
0.0
 11
6478.391939524
 21
3913.8128324357
 31
0.0
  0
ARC
  5
5C8
330
1F
100
AcDbEntity
  8
0
  6
Continuous
 62
     7
370
    25
100
AcDbCircle
 10
6478.3919390769
 20
3909.8129354325
 30
0.0
 40
2.0
100
AcDbArc
 50
90.0
 51
180.0000000001
  0
LINE
  5
5C9
330
1F
100
AcDbEntity
  8
0
  6
Continuous
 62
     7
370
    25
100
AcDbLine
 10
6478.391939524
 20
3913.8128324357
 30
0.0
 11
6529.3919385703
 21
3913.8128324357
 31
0.0
  0
LINE
  5
5CA
330
1F
100
AcDbEntity
  8
0
  6
Continuous
 62
     7
370
    25
100
AcDbLine
 10
6529.3919385703
 20
3913.8128324357
 30
0.0
 11
6529.3919385703
 21
3911.8129773942
 31
0.0
  0
LINE
  5
5CB
330
1F
100
AcDbEntity
  8
0
  6
Continuous
 62
     7
370
    25
100
AcDbLine
 10
6478.391939524
 20
3911.8129773942
 30
0.0
 11
6529.3919385703
 21
3911.8129773942
 31
0.0
  0
ARC
  5
5CC
330
1F
100
AcDbEntity
  8
0
  6
Continuous
 62
     7
370
    25
100
AcDbCircle
 10
6478.3919390769
 20
3873.8129354325
 30
0.0
 40
4.000000000000909
100
AcDbArc
 50
179.9999999999
 51
270.0
  0
LINE
  5
5CD
330
1F
100
AcDbEntity
  8
0
  6
Continuous
 62
     7
370
    25
100
AcDbLine
 10
6478.391939524
 20
3871.8128963319
 30
0.0
 11
6478.391939524
 21
3869.8129220811
 31
0.0
  0
ARC
  5
5CE
330
1F
100
AcDbEntity
  8
0
  6
Continuous
 62
     7
370
    25
100
AcDbCircle
 10
6478.3919390769
 20
3873.8129354325
 30
0.0
 40
2.0
100
AcDbArc
 50
179.9999999999
 51
270.0
  0
ARC
  5
5CF
330
1F
100
AcDbEntity
  8
0
  6
Continuous
 62
     7
370
    25
100
AcDbCircle
 10
6494.3919390769
 20
3873.8129354325
 30
0.0
 40
4.000000000000909
100
AcDbArc
 50
270.0
 51
0.0
  0
LINE
  5
5D0
330
1F
100
AcDbEntity
  8
0
  6
Continuous
 62
     7
370
    25
100
AcDbLine
 10
6494.3919388869
 20
3871.8128963319
 30
0.0
 11
6494.3919388869
 21
3869.8129220811
 31
0.0
  0
LINE
  5
5D1
330
1F
100
AcDbEntity
  8
0
  6
Continuous
 62
     7
370
    25
100
AcDbLine
 10
6496.3919389819
 20
3873.812989792
 30
0.0
 11
6498.3919390769
 21
3873.812989792
 31
0.0
  0
ARC
  5
5D2
330
1F
100
AcDbEntity
  8
0
  6
Continuous
 62
     7
370
    25
100
AcDbCircle
 10
6494.3919390769
 20
3873.8129354325
 30
0.0
 40
2.000000000000909
100
AcDbArc
 50
270.0
 51
0.0
  0
LINE
  5
5D3
330
1F
100
AcDbEntity
  8
0
  6
Continuous
 62
     7
370
    25
100
AcDbLine
 10
6478.391939524
 20
3871.8128963319
 30
0.0
 11
6494.3919388869
 21
3871.8128963319
 31
0.0
  0
LINE
  5
5D4
330
1F
100
AcDbEntity
  8
0
  6
Continuous
 62
     7
370
    25
100
AcDbLine
 10
6478.391939524
 20
3869.8129220811
 30
0.0
 11
6494.3919388869
 21
3869.8129220811
 31
0.0
  0
LINE
  5
5D5
330
1F
100
AcDbEntity
  8
0
  6
Continuous
 62
     7
370
    25
100
AcDbLine
 10
6496.3919389819
 20
3883.8129802552
 30
0.0
 11
6496.3919389819
 21
3873.812989792
 31
0.0
  0
LINE
  5
5D6
330
1F
100
AcDbEntity
  8
0
  6
Continuous
 62
     7
370
    25
100
AcDbLine
 10
6498.3919390769
 20
3883.8129802552
 30
0.0
 11
6496.3919389819
 21
3883.8129802552
 31
0.0
  0
LINE
  5
5D7
330
1F
100
AcDbEntity
  8
0
  6
Continuous
 62
     7
370
    25
100
AcDbLine
 10
6498.3919390769
 20
3883.8129802552
 30
0.0
 11
6498.3919390769
 21
3873.812989792
 31
0.0
  0
ENDSEC
  0
SECTION
  2
OBJECTS
  0
DICTIONARY
  5
C
330
0
100
AcDbDictionary
281
     1
  3
ACAD_GROUP
350
D
  3
ACAD_LAYOUT
350
1A
  3
ACAD_MLINESTYLE
350
17
  3
ACAD_PLOTSETTINGS
350
19
  3
ACAD_PLOTSTYLENAME
350
E
  3
ACAD_SCALELIST
350
47
  0
DICTIONARY
  5
D
102
{ACAD_REACTORS
330
C
102
}
330
C
100
AcDbDictionary
281
     1
  0
DICTIONARY
  5
1A
102
{ACAD_REACTORS
330
C
102
}
330
C
100
AcDbDictionary
281
     1
  3
Layout1
350
1E
  3
Layout2
350
26
  3
Model
350
22
  0
DICTIONARY
  5
17
102
{ACAD_REACTORS
330
C
102
}
330
C
100
AcDbDictionary
281
     1
  3
Standard
350
18
  0
DICTIONARY
  5
19
102
{ACAD_REACTORS
330
C
102
}
330
C
100
AcDbDictionary
281
     1
  0
ACDBDICTIONARYWDFLT
  5
E
102
{ACAD_REACTORS
330
C
102
}
330
C
100
AcDbDictionary
281
     1
  3
Normal
350
F
100
AcDbDictionaryWithDefault
340
F
  0
DICTIONARY
  5
47
102
{ACAD_REACTORS
330
C
102
}
330
C
100
AcDbDictionary
281
     1
  3
A0
350
48
  3
A1
350
49
  3
A2
350
4A
  3
A3
350
4B
  3
A4
350
4C
  3
A5
350
4D
  3
A6
350
4E
  3
A7
350
4F
  3
A8
350
50
  3
A9
350
51
  3
B0
350
52
  3
B1
350
53
  3
B2
350
54
  3
B3
350
55
  3
B4
350
56
  3
B5
350
57
  3
B6
350
58
  3
B7
350
59
  3
B8
350
5A
  3
B9
350
5B
  3
C0
350
5C
  3
C1
350
5D
  3
C2
350
5E
  3
C3
350
5F
  3
C4
350
60
  3
C5
350
61
  3
C6
350
62
  3
C7
350
63
  3
C8
350
64
  3
C9
350
65
  3
D0
350
66
  3
D1
350
67
  3
D2
350
68
  0
LAYOUT
  5
1E
102
{ACAD_REACTORS
330
1A
102
}
330
1A
100
AcDbPlotSettings
  1

  2
none_device
  4

  6

 40
0.0
 41
0.0
 42
0.0
 43
0.0
 44
0.0
 45
0.0
 46
0.0
 47
0.0
 48
0.0
 49
0.0
140
0.0
141
0.0
142
1.0
143
1.0
 70
   688
 72
     1
 73
     0
 74
     5
  7

 75
    16
147
1.0
148
0.0
149
0.0
100
AcDbLayout
  1
Layout1
 70
     1
 71
     1
 10
0.0
 20
0.0
 11
420.0
 21
297.0
 12
0.0
 22
0.0
 32
0.0
 14
1.0000000000E+20
 24
1.0000000000E+20
 34
1.0000000000E+20
 15
-1.0000000000E+20
 25
-1.0000000000E+20
 35
-1.0000000000E+20
146
0.0
 13
0.0
 23
0.0
 33
0.0
 16
1.0
 26
0.0
 36
0.0
 17
0.0
 27
1.0
 37
0.0
 76
     0
330
1B
  0
LAYOUT
  5
26
102
{ACAD_REACTORS
330
1A
102
}
330
1A
100
AcDbPlotSettings
  1

  2
none_device
  4

  6

 40
0.0
 41
0.0
 42
0.0
 43
0.0
 44
0.0
 45
0.0
 46
0.0
 47
0.0
 48
0.0
 49
0.0
140
0.0
141
0.0
142
1.0
143
1.0
 70
   688
 72
     1
 73
     0
 74
     5
  7

 75
    16
147
1.0
148
0.0
149
0.0
100
AcDbLayout
  1
Layout2
 70
     1
 71
     2
 10
0.0
 20
0.0
 11
0.0
 21
0.0
 12
0.0
 22
0.0
 32
0.0
 14
0.0
 24
0.0
 34
0.0
 15
0.0
 25
0.0
 35
0.0
146
0.0
 13
0.0
 23
0.0
 33
0.0
 16
1.0
 26
0.0
 36
0.0
 17
0.0
 27
1.0
 37
0.0
 76
     0
330
23
  0
LAYOUT
  5
22
102
{ACAD_REACTORS
330
1A
102
}
330
1A
100
AcDbPlotSettings
  1

  2
none_device
  4
Letter_(8.50_x_11.00_Inches)
  6

 40
6.35
 41
6.35
 42
6.35000508
 43
6.35000508
 44
215.9
 45
279.4
 46
0.0
 47
0.0
 48
0.0
 49
0.0
140
0.0
141
0.0
142
1.0
143
1.0
 70
  1712
 72
     1
 73
     0
 74
     0
  7

 75
     0
147
1.0
148
0.0
149
0.0
100
AcDbLayout
  1
Model
 70
     1
 71
     0
 10
0.0
 20
0.0
 11
8400.0
 21
5940.0
 12
0.0
 22
0.0
 32
0.0
 14
0.0
 24
0.0
 34
0.0
 15
8400.0
 25
5940.0
 35
0.0
146
0.0
 13
0.0
 23
0.0
 33
0.0
 16
1.0
 26
0.0
 36
0.0
 17
0.0
 27
1.0
 37
0.0
 76
     0
330
1F
331
29
  0
MLINESTYLE
  5
18
102
{ACAD_REACTORS
330
17
102
}
330
17
100
AcDbMlineStyle
  2
Standard
 70
     0
  3

 62
   256
 51
90.0
 52
90.0
 71
     2
 49
0.5
 62
   256
  6
BYLAYER
 49
-0.5
 62
   256
  6
BYLAYER
  0
ACDBPLACEHOLDER
  5
F
102
{ACAD_REACTORS
330
E
102
}
330
E
  0
SCALE
  5
48
102
{ACAD_REACTORS
330
47
102
}
330
47
100
AcDbScale
 70
     0
300
1:1
140
1.0
141
1.0
290
     1
  0
SCALE
  5
49
102
{ACAD_REACTORS
330
47
102
}
330
47
100
AcDbScale
 70
     0
300
1:2
140
1.0
141
2.0
290
     0
  0
SCALE
  5
4A
102
{ACAD_REACTORS
330
47
102
}
330
47
100
AcDbScale
 70
     0
300
1:4
140
1.0
141
4.0
290
     0
  0
SCALE
  5
4B
102
{ACAD_REACTORS
330
47
102
}
330
47
100
AcDbScale
 70
     0
300
1:5
140
1.0
141
5.0
290
     0
  0
SCALE
  5
4C
102
{ACAD_REACTORS
330
47
102
}
330
47
100
AcDbScale
 70
     0
300
1:8
140
1.0
141
8.0
290
     0
  0
SCALE
  5
4D
102
{ACAD_REACTORS
330
47
102
}
330
47
100
AcDbScale
 70
     0
300
1:10
140
1.0
141
10.0
290
     0
  0
SCALE
  5
4E
102
{ACAD_REACTORS
330
47
102
}
330
47
100
AcDbScale
 70
     0
300
1:16
140
1.0
141
16.0
290
     0
  0
SCALE
  5
4F
102
{ACAD_REACTORS
330
47
102
}
330
47
100
AcDbScale
 70
     0
300
1:20
140
1.0
141
20.0
290
     0
  0
SCALE
  5
50
102
{ACAD_REACTORS
330
47
102
}
330
47
100
AcDbScale
 70
     0
300
1:30
140
1.0
141
30.0
290
     0
  0
SCALE
  5
51
102
{ACAD_REACTORS
330
47
102
}
330
47
100
AcDbScale
 70
     0
300
1:40
140
1.0
141
40.0
290
     0
  0
SCALE
  5
52
102
{ACAD_REACTORS
330
47
102
}
330
47
100
AcDbScale
 70
     0
300
1:50
140
1.0
141
50.0
290
     0
  0
SCALE
  5
53
102
{ACAD_REACTORS
330
47
102
}
330
47
100
AcDbScale
 70
     0
300
1:100
140
1.0
141
100.0
290
     0
  0
SCALE
  5
54
102
{ACAD_REACTORS
330
47
102
}
330
47
100
AcDbScale
 70
     0
300
2:1
140
2.0
141
1.0
290
     0
  0
SCALE
  5
55
102
{ACAD_REACTORS
330
47
102
}
330
47
100
AcDbScale
 70
     0
300
4:1
140
4.0
141
1.0
290
     0
  0
SCALE
  5
56
102
{ACAD_REACTORS
330
47
102
}
330
47
100
AcDbScale
 70
     0
300
8:1
140
8.0
141
1.0
290
     0
  0
SCALE
  5
57
102
{ACAD_REACTORS
330
47
102
}
330
47
100
AcDbScale
 70
     0
300
10:1
140
10.0
141
1.0
290
     0
  0
SCALE
  5
58
102
{ACAD_REACTORS
330
47
102
}
330
47
100
AcDbScale
 70
     0
300
100:1
140
100.0
141
1.0
290
     0
  0
SCALE
  5
59
102
{ACAD_REACTORS
330
47
102
}
330
47
100
AcDbScale
 70
     0
300
1/128" = 1'-0"
140
0.0078125
141
12.0
290
     0
  0
SCALE
  5
5A
102
{ACAD_REACTORS
330
47
102
}
330
47
100
AcDbScale
 70
     0
300
1/64" = 1'-0"
140
0.015625
141
12.0
290
     0
  0
SCALE
  5
5B
102
{ACAD_REACTORS
330
47
102
}
330
47
100
AcDbScale
 70
     0
300
1/32" = 1'-0"
140
0.03125
141
12.0
290
     0
  0
SCALE
  5
5C
102
{ACAD_REACTORS
330
47
102
}
330
47
100
AcDbScale
 70
     0
300
1/16" = 1'-0"
140
0.0625
141
12.0
290
     0
  0
SCALE
  5
5D
102
{ACAD_REACTORS
330
47
102
}
330
47
100
AcDbScale
 70
     0
300
3/32" = 1'-0"
140
0.09375
141
12.0
290
     0
  0
SCALE
  5
5E
102
{ACAD_REACTORS
330
47
102
}
330
47
100
AcDbScale
 70
     0
300
1/8" = 1'-0"
140
0.125
141
12.0
290
     0
  0
SCALE
  5
5F
102
{ACAD_REACTORS
330
47
102
}
330
47
100
AcDbScale
 70
     0
300
3/16" = 1'-0"
140
0.1875
141
12.0
290
     0
  0
SCALE
  5
60
102
{ACAD_REACTORS
330
47
102
}
330
47
100
AcDbScale
 70
     0
300
1/4" = 1'-0"
140
0.25
141
12.0
290
     0
  0
SCALE
  5
61
102
{ACAD_REACTORS
330
47
102
}
330
47
100
AcDbScale
 70
     0
300
3/8" = 1'-0"
140
0.375
141
12.0
290
     0
  0
SCALE
  5
62
102
{ACAD_REACTORS
330
47
102
}
330
47
100
AcDbScale
 70
     0
300
1/2" = 1'-0"
140
0.5
141
12.0
290
     0
  0
SCALE
  5
63
102
{ACAD_REACTORS
330
47
102
}
330
47
100
AcDbScale
 70
     0
300
3/4" = 1'-0"
140
0.75
141
12.0
290
     0
  0
SCALE
  5
64
102
{ACAD_REACTORS
330
47
102
}
330
47
100
AcDbScale
 70
     0
300
1" = 1'-0"
140
1.0
141
12.0
290
     0
  0
SCALE
  5
65
102
{ACAD_REACTORS
330
47
102
}
330
47
100
AcDbScale
 70
     0
300
1-1/2" = 1'-0"
140
1.5
141
12.0
290
     0
  0
SCALE
  5
66
102
{ACAD_REACTORS
330
47
102
}
330
47
100
AcDbScale
 70
     0
300
3" = 1'-0"
140
3.0
141
12.0
290
     0
  0
SCALE
  5
67
102
{ACAD_REACTORS
330
47
102
}
330
47
100
AcDbScale
 70
     0
300
6" = 1'-0"
140
6.0
141
12.0
290
     0
  0
SCALE
  5
68
102
{ACAD_REACTORS
330
47
102
}
330
47
100
AcDbScale
 70
     0
300
1'-0" = 1'-0"
140
12.0
141
12.0
290
     0
  0
ENDSEC
  0
EOF
